+ ShareSpark.net »  :::: Dubbed Zone (Dubbed English in Hindi) » English Movies Dubbed in Hindi » High Resolution Movies
|- Soldier (1998) BDRip 1080p Dual Audio [ Hindi ORG DD 2.0 -Eng 5.1] Tariq Qureshi


100% Bill Offer

Soldier (1998) BDRip 1080p Dual Audio [ Hindi ORG DD 2.0 -Eng 5.1] Tariq Qureshi

0 Members and 1 Guest are viewing this topic.

July 27, 2014, 07:11:31 PM
  • Admin
  • Legend Member
  • ****
  • Topic Author
  • Thank You: 1095
  • Reputation: 1226
  • Activity:
    0.2%
  • Country: pk
  • Posts: 2943
  • Topics: 1324
  • Join Date: Jul 2013
  • Khuwaja Market Tando Allahyar

:RELEASE TITLE:
Soldier (1998) BDRip 1080p Dual Audio [ Hindi ORG DD 2.0 -Eng 5.1] Tariq Qureshi



============================================================================
============================================================================
THANKS TO SAM,OZIMAN, AND ALL ADMINS,MOD
============================================================================

:GENERAL INFO:
Format : Matroska
Format : Matroska
Format version : Version 4 / Version 2
File size : 2.87 GiB
Duration : 1h 34mn
Overall bit rate : 4 346 Kbps
Movie name : Soldier (1998) BDRip 1080p Dual Audio [ Hindi ORG DD 2.0 -Eng 5.1] Tariq Qureshi

============================================================================

:VIDEO INFO:
ID : 1
Format : AVC
Format/Info : Advanced Video Codec
Format profile : [email protected]
Format settings, CABAC : Yes
Format settings, ReFrames : 4 frames
Codec ID : V_MPEG4/ISO/AVC
Duration : 1h 34mn
Bit rate : 3 500 Kbps
Width : 1 920 pixels
Height : 1 080 pixels
Display aspect ratio : 16:9
Frame rate mode : Constant
Frame rate : 25.000 fps
Original frame rate : 23.976 fps
Stream size : 2.35 GiB (82%)
Writing library : x264 core 142 r2431 ac76440
DURATION : 01:34:34.400000000
Language : English
Default : Yes
Forced : No

============================================================================

:AUDIO 1:
ID : 2
Format : AC-3
Format/Info : Audio Coding 3
Mode extension : CM (complete main)
Format settings, Endianness : Big
Codec ID : A_AC3
Duration : 1h 34mn
Bit rate mode : Constant
Bit rate : 256 Kbps
Channel(s) : 2 channels
Channel positions : Front: L R
Sampling rate : 48.0 KHz
Bit depth : 16 bits
Compression mode : Lossy
Stream size : 173 MiB (6%)
Title : ORG DD 2.0 Tariq Qureshi
Language : Hindi
Default : Yes
Forced : No

============================================================================

:AUDIO 2:
ID : 3
Format : AC-3
Format/Info : Audio Coding 3
Mode extension : CM (complete main)
Format settings, Endianness : Big
Codec ID : A_AC3
Duration : 1h 34mn
Bit rate mode : Constant
Bit rate : 448 Kbps
Channel(s) : 6 channels
Channel positions : Front: L C R, Side: L R, LFE
Sampling rate : 48.0 KHz
Bit depth : 16 bits
Compression mode : Lossy
Stream size : 303 MiB (10%)
Title : DD 5.1 Tariq Qureshi
Language : English
Default : No
Forced : No

============================================================================

:SUBTITLE:
Text
ID : 4
Format : UTF-8
Codec ID : S_TEXT/UTF8
Codec ID/Info : UTF-8 Plain Text
Title : Tariq Qureshi
Language : English
Default : No
Forced : No

MENU : YES
============================================================================


SCREEN SHOTS





 :download:







Share this topic on FacebookShare this topic on GoogleShare this topic on MySpaceShare this topic on TwitterShare this topic on Yahoo

« Last Edit: July 27, 2014, 07:17:23 PM by Bozdar Jaan »


Thanks given by:


November 23, 2018, 05:49:46 PM
Reply #1
  • Semi Newbie
  • **
  • Thank You: 0
  • Reputation: 0
  • Activity:
    1.8%
  • Country: in
  • Posts: 6
  • Topics: 0
  • Join Date: Oct 2018
  • ShareSpark Member

Tags:
 

Related Topics





Back to top