+ ShareSpark.net »  :::: Dubbed Zone (Dubbed English in Hindi) » English Movies Dubbed in Hindi » High Resolution Movies
|- Venom 2018 1080p WEBRip x264 Dual Audio [Hindi - English] ESub [MW]


Mastercard 10% Off

Venom 2018 1080p WEBRip x264 Dual Audio [Hindi - English] ESub [MW]

0 Members and 1 Guest are viewing this topic.

November 29, 2018, 03:07:59 PM
  • ***************
  • Team SSX
  • Legend Member
  • ***
  • Topic Author
  • Thank You: 1786
  • Reputation: 547
  • Activity:
    100%
  • Country: pk
  • Posts: 1875
  • Topics: 1166
  • Join Date: Mar 2015
  • =$ Success Never Ends $=
Venom 2018 1080p WEBRip x264 Dual Audio [Hindi - English] ESub [MW]










General
Format : Matroska
Format version : Version 4 / Version 2
File size : 1.86 GiB
Duration : 1 h 47 min
Overall bit rate : 2 484 kb/s

Video
ID : 1
Format : AVC
Format/Info : Advanced Video Codec
Format profile : [email protected]
Format settings : CABAC / 4 Ref Frames
Format settings, CABAC : Yes
Format settings, RefFrames : 4 frames
Codec ID : V_MPEG4/ISO/AVC
Duration : 1 h 47 min
Bit rate : 2 200 kb/s
Width : 1 920 pixels
Height : 800 pixels
Display aspect ratio : 2.40:1
Frame rate mode : Constant
Frame rate : 23.976 (24000/1001) FPS
Color space : YUV
Chroma subsampling : 4:2:0
Bit depth : 8 bits
Scan type : Progressive
Bits/(Pixel*Frame) : 0.060
Stream size : 1.57 GiB (84%)
Writing library : x264 core 155 r2901 7d0ff22
Default : Yes
Forced : No

Audio #1
ID : 2
Format : AAC
Format/Info : Advanced Audio Codec
Format profile : LC
Codec ID : A_AAC-2
Duration : 1 h 47 min
Bit rate : 128 kb/s
Channel(s) : 2 channels
Channel positions : Front: L R
Sampling rate : 48.0 kHz
Frame rate : 46.875 FPS (1024 SPF)
Compression mode : Lossy
Stream size : 98.1 MiB (5%)
Language : Hindi
Default : Yes
Forced : No

Audio #2
ID : 3
Format : AAC
Format/Info : Advanced Audio Codec
Format profile : LC
Codec ID : A_AAC-2
Duration : 1 h 47 min
Bit rate : 256 kb/s
Channel(s) : 2 channels
Channel positions : Front: L R
Sampling rate : 48.0 kHz
Frame rate : 46.875 FPS (1024 SPF)
Compression mode : Lossy
Stream size : 197 MiB (10%)
Language : English
Default : No
Forced : No

Text
ID : 4
Format : UTF-8
Codec ID : S_TEXT/UTF8
Codec ID/Info : UTF-8 Plain Text
Duration : 1 h 34 min
Bit rate : 82 b/s
Count of elements : 1781
Stream size : 57.2 KiB (0%)
Default : Yes
Forced : No





 :ss:
















 :download:


























Share this topic on FacebookShare this topic on GoogleShare this topic on MySpaceShare this topic on TwitterShare this topic on Yahoo



Thanks given by:


November 29, 2018, 03:29:30 PM
Reply #1
  • Senior Member
  • ***
  • Thank You: 4
  • Reputation: 1
  • Activity:
    16.4%
  • Country: pk
  • Posts: 217
  • Topics: 7
  • Join Date: Mar 2013
  • ShareSpark Member

Tags:
 

Related Topics





Back to top