+ ShareSpark.net »  :::: Dubbed Zone (Dubbed English in Hindi) » English Movies Dubbed in Hindi » High Resolution Movies
|- Incredibles 2 (2018) 1080p BluRay x264 Dual Audio [Hindi DD5.1 - English DD5.1] - ESUB ~ Ranvijay


HDFC 10% Off

Incredibles 2 (2018) 1080p BluRay x264 Dual Audio [Hindi DD5.1 - English DD5.1] - ESUB ~ Ranvijay

0 Members and 1 Guest are viewing this topic.

November 13, 2018, 04:06:08 PM
  • Global Moderator
  • Legend Member
  • *****
  • Topic Author
  • Thank You: 11331
  • Reputation: 2273
  • Activity:
    100%
  • Country: in
  • Posts: 5493
  • Topics: 4531
  • Join Date: Jan 2014
  • ıllıllı ѕмoĸιng ιѕ good ғor нealтн ıllıllı :)






Incredibles 2 (2018) 1080p BluRay x264 Dual Audio [Hindi DD5.1 - English DD5.1] - ESUBS ~ Ranvijay

Thanks To Mr Rajput For Hindi Audio

Buy RDP Online




Quote

Format                                   : Matroska
Format version                           : Version 4 / Version 2
File size                                : 5.13 GiB
Duration                                 : 1 h 57 min
Overall bit rate                         : 6 227 kb/s
Movie name                               : Incredibles 2 (2018) 1080p BluRay x264 Dual Audio [Hindi DD5.1 - English DD5.1] - ESUB ~ Ranvijay

Video
ID                                       : 1
Format                                   : AVC
Format/Info                              : Advanced Video Codec
Duration                                 : 1 h 57 min
Bit rate                                 : 5 129 kb/s
Width                                    : 1 920 pixels
Height                                   : 808 pixels
Display aspect ratio                     : 2.40:1
Frame rate mode                          : Constant
Frame rate                               : 23.976 (24000/1001) FPS
Color space                              : YUV
Chroma subsampling                       : 4:2:0
Bit depth                                : 8 bits
Scan type                                : Progressive
Bits/(Pixel*Frame)                       : 0.138
Stream size                              : 4.22 GiB (82%)
Title                                    : ~Ranvijay~

Audio #1
ID                                       : 2
Format                                   : AC-3
Format/Info                              : Audio Coding 3
Codec ID                                 : A_AC3
Duration                                 : 1 h 57 min
Bit rate mode                            : Constant
Bit rate                                 : 640 kb/s
Channel(s)                               : 6 channels
Channel positions                        : Front: L C R, Side: L R, LFE
Sampling rate                            : 48.0 kHz
Frame rate                               : 31.250 FPS (1536 SPF)
Bit depth                                : 16 bits
Compression mode                         : Lossy
Stream size                              : 539 MiB (10%)
Title                                    : ~Ranvijay~
Language                                 : Hindi
Service kind                             : Complete Main
Default                                  : Yes
Forced                                   : Yes

Audio #2
ID                                       : 3
Format                                   : AC-3
Format/Info                              : Audio Coding 3
Codec ID                                 : A_AC3
Duration                                 : 1 h 57 min
Bit rate mode                            : Constant
Bit rate                                 : 448 kb/s
Channel(s)                               : 6 channels
Channel positions                        : Front: L C R, Side: L R, LFE
Sampling rate                            : 48.0 kHz
Frame rate                               : 31.250 FPS (1536 SPF)
Bit depth                                : 16 bits
Compression mode                         : Lossy
Stream size                              : 378 MiB (7%)
Title                                    : ~Ranvijay~
Language                                 : English
Service kind                             : Complete Main
Default                                  : No
Forced                                   : No

Text
ID                                       : 4
Format                                   : VobSub
Muxing mode                              : zlib
Codec ID                                 : S_VOBSUB
Codec ID/Info                            : Picture based subtitle format used on DVDs
Duration                                 : 1 h 54 min
Bit rate                                 : 13.3 kb/s
Count of elements                        : 2309
Stream size                              : 11.0 MiB (0%)
Title                                    : ~Ranvijay~
Language                                 : English
Default                                  : Yes
Forced                                   : Yes

Menu
00:00:00.000                             : en:00:00:00.000
00:03:22.327                             : en:00:03:22.327
00:08:53.616                             : en:00:08:53.616
00:09:36.784                             : en:00:09:36.784
00:13:38.276                             : en:00:13:38.276
00:15:44.735                             : en:00:15:44.735
00:21:19.737                             : en:00:21:19.737
00:23:28.282                             : en:00:23:28.282
00:27:08.794                             : en:00:27:08.794
00:28:59.571                             : en:00:28:59.571
00:35:10.900                             : en:00:35:10.900
00:39:07.845                             : en:00:39:07.845
00:42:43.894                             : en:00:42:43.894
00:43:42.411                             : en:00:43:42.411
00:47:35.352                             : en:00:47:35.352
00:48:53.889                             : en:00:48:53.889
00:54:15.585                             : en:00:54:15.585
00:56:16.039                             : en:00:56:16.039
01:00:58.696                             : en:01:00:58.696
01:02:01.884                             : en:01:02:01.884
01:06:55.511                             : en:01:06:55.511
01:09:18.237                             : en:01:09:18.237
01:11:28.200                             : en:01:11:28.200
01:12:37.686                             : en:01:12:37.686
01:14:39.266                             : en:01:14:39.266
01:18:00.968                             : en:01:18:00.968
01:20:32.536                             : en:01:20:32.536
01:25:01.930                             : en:01:25:01.930
01:27:59.440                             : en:01:27:59.440
01:31:53.925                             : en:01:31:53.925
01:33:26.434                             : en:01:33:26.434
01:36:25.237                             : en:01:36:25.237
01:37:45.192                             : en:01:37:45.192
01:43:56.897                             : en:01:43:56.897
01:45:35.912                             : en:01:45:35.912
01:47:30.902                             : en:01:47:30.902











:download:

Quote


File Leeched & Uploaded From




Don't walk as you are king, walk as you don't care who the king is....!!
Never argue with an idiot. They drag you down to their level and then beat you with experience?

Share this topic on FacebookShare this topic on GoogleShare this topic on MySpaceShare this topic on TwitterShare this topic on Yahoo




Don't walk as you are king, walk as you don't care who the king is....!!

Thanks given by:


November 14, 2018, 05:50:48 PM
Reply #1
  • ***************
  • Team SSX
  • Legend Member
  • ***
  • Thank You: 1835
  • Reputation: 553
  • Activity:
    100%
  • Country: pk
  • Posts: 1935
  • Topics: 1219
  • Join Date: Mar 2015
  • =$ Success Never Ends $=

Tags:
 

Related Topics





Back to top