+ ShareSpark.net »  :::: Dubbed Zone (Dubbed English in Hindi) » English Movies Dubbed in Hindi » High Resolution Movies
|- The Meg (2018) 1080p BluRay x264 Dual Audio [Hindi DD5.1 - English DD5.1] - MSUBS ~ Ranvijay


100% DTH Offer
  • The Meg (2018) 1080p BluRay x264 Dual Audio [Hindi DD5.1 - English DD5.1] - MSUBS ~ Ranvijay 4 1
Currently:  

The Meg (2018) 1080p BluRay x264 Dual Audio [Hindi DD5.1 - English DD5.1] - MSUBS ~ Ranvijay

0 Members and 1 Guest are viewing this topic.

November 11, 2018, 05:42:30 PM
  • Global Moderator
  • Legend Member
  • *****
  • Topic Author
  • Thank You: 11331
  • Reputation: 2273
  • Activity:
    100%
  • Country: in
  • Posts: 5493
  • Topics: 4531
  • Join Date: Jan 2014
  • ıllıllı ѕмoĸιng ιѕ good ғor нealтн ıllıllı :)






The Meg (2018) 1080p BluRay x264 Dual Audio [Hindi DD5.1 - English DD5.1] - MSUBS ~ Ranvijay

Thanks To Hammer For Hindi Audio

Buy RDP Online




Quote

Format                                   : Matroska
Format version                           : Version 4 / Version 2
File size                                : 4.67 GiB
Duration                                 : 1 h 53 min
Overall bit rate                         : 5 908 kb/s
Movie name                               : The Meg (2018) 1080p BluRay x264 Dual Audio [Hindi DD5.1 - English DD5.1] - MSUBS ~ Ranvijay

Video
ID                                       : 1
Format                                   : AVC
Format/Info                              : Advanced Video Codec
Duration                                 : 1 h 53 min
Bit rate                                 : 5 000 kb/s
Width                                    : 1 920 pixels
Height                                   : 800 pixels
Display aspect ratio                     : 2.40:1
Frame rate mode                          : Constant
Frame rate                               : 23.976 (24000/1001) FPS
Color space                              : YUV
Chroma subsampling                       : 4:2:0
Bit depth                                : 8 bits
Scan type                                : Progressive
Bits/(Pixel*Frame)                       : 0.136
Stream size                              : 3.95 GiB (85%)
Title                                    : ~Ranvijay~

Audio #1
ID                                       : 2
Format                                   : AC-3
Format/Info                              : Audio Coding 3
Codec ID                                 : A_AC3
Duration                                 : 1 h 53 min
Bit rate mode                            : Constant
Bit rate                                 : 448 kb/s
Channel(s)                               : 6 channels
Channel positions                        : Front: L C R, Side: L R, LFE
Sampling rate                            : 48.0 kHz
Frame rate                               : 31.250 FPS (1536 SPF)
Bit depth                                : 16 bits
Compression mode                         : Lossy
Stream size                              : 363 MiB (8%)
Title                                    : ~Ranvijay~
Language                                 : Hindi
Service kind                             : Complete Main
Default                                  : Yes
Forced                                   : Yes

Audio #2
ID                                       : 3
Format                                   : AC-3
Format/Info                              : Audio Coding 3
Codec ID                                 : A_AC3
Duration                                 : 1 h 53 min
Bit rate mode                            : Constant
Bit rate                                 : 448 kb/s
Channel(s)                               : 6 channels
Channel positions                        : Front: L C R, Side: L R, LFE
Sampling rate                            : 48.0 kHz
Frame rate                               : 31.250 FPS (1536 SPF)
Bit depth                                : 16 bits
Compression mode                         : Lossy
Stream size                              : 363 MiB (8%)
Title                                    : ~Ranvijay~
Language                                 : English
Service kind                             : Complete Main
Default                                  : No
Forced                                   : No

Text #1
ID                                       : 4
Format                                   : PGS
Muxing mode                              : zlib
Codec ID                                 : S_HDMV/PGS
Codec ID/Info                            : Picture based subtitle format used on BDs/HD-DVDs
Duration                                 : 1 h 52 min
Bit rate                                 : 32.0 kb/s
Count of elements                        : 2960
Stream size                              : 25.6 MiB (1%)
Title                                    : ~Ranvijay~
Language                                 : English
Default                                  : Yes
Forced                                   : Yes

Text #2
ID                                       : 5
Format                                   : PGS
Muxing mode                              : zlib
Codec ID                                 : S_HDMV/PGS
Codec ID/Info                            : Picture based subtitle format used on BDs/HD-DVDs
Duration                                 : 1 h 52 min
Bit rate                                 : 547 b/s
Count of elements                        : 90
Stream size                              : 450 KiB (0%)
Title                                    : ~Ranvijay~
Language                                 : Hindi
Default                                  : No
Forced                                   : No











:download:

Quote


File Leeched & Uploaded From




Don't walk as you are king, walk as you don't care who the king is....!!
Never argue with an idiot. They drag you down to their level and then beat you with experience?

Share this topic on FacebookShare this topic on GoogleShare this topic on MySpaceShare this topic on TwitterShare this topic on Yahoo




Don't walk as you are king, walk as you don't care who the king is....!!

Thanks given by:


November 12, 2018, 02:07:13 PM
Reply #1
  • Senior Member
  • ***
  • Thank You: 4
  • Reputation: 1
  • Activity:
    17.4%
  • Country: pk
  • Posts: 222
  • Topics: 7
  • Join Date: Mar 2013
  • ShareSpark Member

Tags:
 

Related Topics





Back to top