+ ShareSpark.net »  :::: Dubbed Zone (Dubbed English in Hindi) » English Movies Dubbed in Hindi » High Resolution Movies
|- 300 Rise of an Empire (2014) 1080p BluRay x264 Dual Audio [Hindi DD5.1 640 Kbps - English DD5.1] - E


HDFC 10% Off

300 Rise of an Empire (2014) 1080p BluRay x264 Dual Audio [Hindi DD5.1 640 Kbps - English DD5.1] - E

0 Members and 1 Guest are viewing this topic.

September 26, 2018, 11:05:08 PM
  • Global Moderator
  • Legend Member
  • *****
  • Topic Author
  • Thank You: 11195
  • Reputation: 2240
  • Activity:
    100%
  • Country: in
  • Posts: 5470
  • Topics: 4514
  • Join Date: Jan 2014
  • ıllıllı ѕмoĸιng ιѕ good ғor нealтн ıllıllı :)






300: Rise of an Empire (2014) 1080p BluRay x264 Dual Audio [Hindi DD5.1 640 Kbps - English DD5.1] - Esub ~ Ranvijay


Thanks To NBTorrents For Hindi Audio

Buy RDP Online




Quote
General
Format                                   : Matroska
Format version                           : Version 4 / Version 2
File size                                : 4.37 GiB
Duration                                 : 1 h 42 min
Overall bit rate                         : 6 098 kb/s
Movie name                               : 300: Rise of an Empire (2014) 1080p BluRay x264 Dual Audio [Hindi DD5.1 640 Kbps - English DD5.1] - Esub ~ Ranvijay

Video
ID                                       : 1
Format                                   : AVC
Format/Info                              : Advanced Video Codec
Duration                                 : 1 h 42 min
Bit rate                                 : 5 000 kb/s
Width                                    : 1 920 pixels
Height                                   : 800 pixels
Display aspect ratio                     : 2.40:1
Frame rate mode                          : Constant
Frame rate                               : 23.976 (24000/1001) FPS
Color space                              : YUV
Chroma subsampling                       : 4:2:0
Bit depth                                : 8 bits
Scan type                                : Progressive
Bits/(Pixel*Frame)                       : 0.136
Stream size                              : 3.58 GiB (82%)
Title                                    : ~Ranvijay~

Audio #1
ID                                       : 2
Format                                   : AC-3
Format/Info                              : Audio Coding 3
Codec ID                                 : A_AC3
Duration                                 : 1 h 42 min
Bit rate mode                            : Constant
Bit rate                                 : 640 kb/s
Channel(s)                               : 6 channels
Channel positions                        : Front: L C R, Side: L R, LFE
Sampling rate                            : 48.0 kHz
Frame rate                               : 31.250 FPS (1536 SPF)
Bit depth                                : 16 bits
Compression mode                         : Lossy
Delay relative to video                  : 917 ms
Stream size                              : 469 MiB (10%)
Title                                    : ~Ranvijay~
Language                                 : Hindi
Service kind                             : Complete Main
Default                                  : Yes
Forced                                   : Yes

Audio #2
ID                                       : 3
Format                                   : AC-3
Format/Info                              : Audio Coding 3
Codec ID                                 : A_AC3
Duration                                 : 1 h 42 min
Bit rate mode                            : Constant
Bit rate                                 : 448 kb/s
Channel(s)                               : 6 channels
Channel positions                        : Front: L C R, Side: L R, LFE
Sampling rate                            : 48.0 kHz
Frame rate                               : 31.250 FPS (1536 SPF)
Bit depth                                : 16 bits
Compression mode                         : Lossy
Delay relative to video                  : -83 ms
Stream size                              : 329 MiB (7%)
Title                                    : ~Ranvijay~
Language                                 : English
Service kind                             : Complete Main
Default                                  : No
Forced                                   : No

Text
ID                                       : 4
Format                                   : PGS
Muxing mode                              : zlib
Codec ID                                 : S_HDMV/PGS
Codec ID/Info                            : Picture based subtitle format used on BDs/HD-DVDs
Duration                                 : 1 h 42 min
Bit rate                                 : 23.6 kb/s
Count of elements                        : 2010
Stream size                              : 17.2 MiB (0%)
Title                                    : ~Ranvijay~
Language                                 : English
Default                                  : Yes
Forced                                   : Yes














:download:

Quote



File Leeched & Uploaded From




Don't walk as you are king, walk as you don't care who the king is....!!
Never argue with an idiot. They drag you down to their level and then beat you with experience?

Share this topic on FacebookShare this topic on GoogleShare this topic on MySpaceShare this topic on TwitterShare this topic on Yahoo




Don't walk as you are king, walk as you don't care who the king is....!!

Thanks given by:


November 20, 2018, 07:49:33 PM
Reply #1
  • Senior Member
  • ***
  • Thank You: 4
  • Reputation: 1
  • Activity:
    16.4%
  • Country: pk
  • Posts: 217
  • Topics: 7
  • Join Date: Mar 2013
  • ShareSpark Member
« Last Edit: November 20, 2018, 07:52:06 PM by askfriends »

Tags:
 

Related Topics





Back to top