+ ShareSpark.net »  :::: Dubbed Zone (Dubbed English in Hindi) » English Movies Dubbed in Hindi » High Resolution Movies
|- The Mummy Complete Collection (1999 - 2017) 1080p Bluray x264 Dual Audio [Hindi - English] DD5.1 - M


Samsung Galaxy 8

The Mummy Complete Collection (1999 - 2017) 1080p Bluray x264 Dual Audio [Hindi - English] DD5.1 - M

dc7800 and 1 Guest are viewing this topic.

September 09, 2018, 08:58:41 AM
  • Global Moderator
  • Legend Member
  • *****
  • Topic Author
  • Thank You: 11195
  • Reputation: 2240
  • Activity:
    100%
  • Country: in
  • Posts: 5470
  • Topics: 4514
  • Join Date: Jan 2014
  • ıllıllı ѕмoĸιng ιѕ good ғor нealтн ıllıllı :)




The Mummy Complete Collection (1999 - 2017) 1080p Bluray x264 Dual Audio [Hindi - English] DD5.1 - Msubs ~ Ranvijay

Thanks To Hammer For Hindi Audios

Buy RDP Online





The Mummy (1999) 1080p BluRay x264 Dual Audio [Hindi 640 Kbps DD5.1 - English DD5.1] - Msubs ~ Ranvijay

Quote
General
Format                                   : Matroska
Format version                           : Version 4 / Version 2
File size                                : 4.89 GiB
Duration                                 : 2 h 4 min
Overall bit rate                         : 5 608 kb/s
Movie name                               : The Mummy (1999) 1080p BluRay x264 Dual Audio [Hindi 640 Kbps DD5.1 - English DD5.1] - Msubs ~ Ranvijay

Video
ID                                       : 1
Format                                   : AVC
Format/Info                              : Advanced Video Codec
Duration                                 : 2 h 4 min
Bit rate                                 : 4 565 kb/s
Width                                    : 1 920 pixels
Height                                   : 816 pixels
Display aspect ratio                     : 2.35:1
Frame rate mode                          : Constant
Frame rate                               : 23.976 (24000/1001) FPS
Color space                              : YUV
Chroma subsampling                       : 4:2:0
Bit depth                                : 8 bits
Scan type                                : Progressive
Bits/(Pixel*Frame)                       : 0.122
Stream size                              : 3.98 GiB (81%)
Title                                    : ~Ranvijay~

Audio #1
ID                                       : 2
Format                                   : AC-3
Bit rate mode                            : Constant
Bit rate                                 : 640 kb/s
Channel(s)                               : 6 channels
Channel positions                        : Front: L C R, Side: L R, LFE
Title                                    : ~Ranvijay~
Language                                 : Hindi

Audio #2
ID                                       : 3
Format                                   : AC-3
Bit rate mode                            : Constant
Bit rate                                 : 384 kb/s
Channel(s)                               : 6 channels
Channel positions                        : Front: L C R, Side: L R, LFE
Title                                    : ~Ranvijay~
Language                                 : English

Text #1
ID                                       : 4
Format                                   : PGS
Language                                 : Hindi

Text #2
ID                                       : 5
Format                                   : PGS
Language                                 : English

Text #3
ID                                       : 6
Format                                   : UTF-8
Language                                 : English









The Mummy Returns (2001) 1080p BluRay x264 Dual Audio [Hindi 640 Kbps DD5.1 - English DD5.1] - Msubs ~ Ranvijay

Quote
General
Format                                   : Matroska
Format version                           : Version 4 / Version 2
File size                                : 4.96 GiB
Duration                                 : 2 h 9 min
Overall bit rate                         : 5 481 kb/s
Movie name                               : The Mummy Returns (2001) 1080p BluRay x264 Dual Audio [Hindi 640 Kbps DD5.1 - English DD5.1] - Msubs ~ Ranvijay

Video
ID                                       : 1
Format                                   : AVC
Format/Info                              : Advanced Video Codec
Duration                                 : 2 h 9 min
Bit rate                                 : 4 380 kb/s
Width                                    : 1 920 pixels
Height                                   : 816 pixels
Display aspect ratio                     : 2.35:1
Frame rate mode                          : Constant
Frame rate                               : 23.976 (24000/1001) FPS
Color space                              : YUV
Chroma subsampling                       : 4:2:0
Bit depth                                : 8 bits
Scan type                                : Progressive
Bits/(Pixel*Frame)                       : 0.117
Stream size                              : 3.96 GiB (80%)
Title                                    : ~Ranvijay~

Audio #1
ID                                       : 2
Format                                   : AC-3
Bit rate mode                            : Constant
Bit rate                                 : 640 kb/s
Channel(s)                               : 6 channels
Channel positions                        : Front: L C R, Side: L R, LFE
Title                                    : ~Ranvijay~
Language                                 : Hindi

Audio #2
ID                                       : 3
Format                                   : AC-3
Bit rate mode                            : Constant
Bit rate                                 : 448 kb/s
Channel(s)                               : 6 channels
Channel positions                        : Front: L C R, Side: L R, LFE
Title                                    : ~Ranvijay~
Language                                 : English

Text #1
ID                                       : 4
Format                                   : PGS
Language                                 : English

Text #2
ID                                       : 5
Format                                   : PGS
Language                                 : Hindi

Text #3
ID                                       : 6
Format                                   : UTF-8
Language                                 : English









The Mummy Tomb of the Dragon Emperor (2008) 1080p BluRay x264 Dual Audio [Hindi 640 Kbps DD5.1 - English DD5.1] - Msubs ~ Ranvijay

Quote
General
Format                                   : Matroska
Format version                           : Version 4 / Version 2
File size                                : 4.89 GiB
Duration                                 : 1 h 51 min
Overall bit rate                         : 6 262 kb/s
Movie name                               : The Mummy Tomb of the Dragon Emperor (2008) 1080p BluRay x264 Dual Audio [Hindi 640 Kbps DD5.1 - English DD5.1] - Msubs ~ Ranvijay

Video
ID                                       : 1
Format                                   : AVC
Format/Info                              : Advanced Video Codec
Duration                                 : 1 h 51 min
Bit rate                                 : 5 158 kb/s
Width                                    : 1 920 pixels
Height                                   : 800 pixels
Display aspect ratio                     : 2.40:1
Frame rate mode                          : Constant
Frame rate                               : 23.976 (24000/1001) FPS
Color space                              : YUV
Chroma subsampling                       : 4:2:0
Bit depth                                : 8 bits
Scan type                                : Progressive
Bits/(Pixel*Frame)                       : 0.140
Stream size                              : 4.02 GiB (82%)

Audio #1
ID                                       : 2
Format                                   : AC-3
Bit rate mode                            : Constant
Bit rate                                 : 640 kb/s
Channel(s)                               : 6 channels
Channel positions                        : Front: L C R, Side: L R, LFE
Language                                 : Hindi

Audio #2
ID                                       : 3
Format                                   : AC-3
Bit rate mode                            : Constant
Bit rate                                 : 448 kb/s
Channel(s)                               : 6 channels
Channel positions                        : Front: L C R, Side: L R, LFE
Language                                 : English

Text #1
ID                                       : 4
Format                                   : PGS
Stream size                              : 29.5 MiB (1%)
Language                                 : English

Text #2
ID                                       : 5
Format                                   : PGS
Language                                 : Hindi

Text #3
ID                                       : 6
Format                                   : UTF-8
Language                                 : English









The Mummy (2017) 1080p BluRay x264 Dual Audio [Hindi DTS 5.1 - English DD5.1] - Msubs ~ Ranvijay

Quote
General
Format                                   : Matroska
Format version                           : Version 4 / Version 2
File size                                : 4.96 GiB
Duration                                 : 1 h 50 min
Overall bit rate                         : 6 447 kb/s
Movie name                               : The Mummy (2017) 1080p BluRay x264 Dual Audio [Hindi DTS 5.1 - English DD5.1] - Msubs ~ Ranvijay

Video
ID                                       : 1
Format                                   : AVC
Format/Info                              : Advanced Video Codec
Duration                                 : 1 h 50 min
Bit rate                                 : 5 229 kb/s
Width                                    : 1 920 pixels
Height                                   : 800 pixels
Display aspect ratio                     : 2.40:1
Frame rate mode                          : Constant
Frame rate                               : 23.976 (24000/1001) FPS
Color space                              : YUV
Chroma subsampling                       : 4:2:0
Bit depth                                : 8 bits
Scan type                                : Progressive
Bits/(Pixel*Frame)                       : 0.142
Stream size                              : 4.01 GiB (81%)
Title                                    : ~Ranvijay~

Audio #1
ID                                       : 2
Format                                   : DTS
Bit rate mode                            : Constant
Bit rate                                 : 768 kb/s
Channel(s)                               : 6 channels
Channel positions                        : Front: L C R, Side: L R, LFE
Title                                    : ~Ranvijay~
Language                                 : Hindi

Audio #2
ID                                       : 3
Format                                   : AC-3
Bit rate mode                            : Constant
Bit rate                                 : 448 kb/s
Channel(s)                               : 6 channels
Channel positions                        : Front: L C R, Side: L R, LFE
Title                                    : ~Ranvijay~
Language                                 : English

Text #1
ID                                       : 4
Format                                   : PGS
Title                                    : ~Ranvijay~
Language                                 : English

Text #2
ID                                       : 5
Format                                   : PGS
Title                                    : ~Ranvijay~
Language                                 : Hindi

Text #3
ID                                       : 6
Format                                   : UTF-8
Title                                    : Full
Language                                 : English

Text #4
ID                                       : 7
Format                                   : UTF-8
Title                                    : SDH
Language                                 : English

Text #5
ID                                       : 8
Format                                   : UTF-8
Title                                    : SDH Colored
Language                                 : English








:download:

Quote




File Leeched & Uploaded From




Don't walk as you are king, walk as you don't care who the king is....!!
Never argue with an idiot. They drag you down to their level and then beat you with experience?

Share this topic on FacebookShare this topic on GoogleShare this topic on MySpaceShare this topic on TwitterShare this topic on Yahoo




Don't walk as you are king, walk as you don't care who the king is....!!

Thanks given by:


September 09, 2018, 06:43:09 PM
Reply #1
  • Newbie
  • **
  • Thank You: 0
  • Reputation: 0
  • Activity:
    0.2%
  • Country: in
  • Posts: 1
  • Topics: 0
  • Join Date: Feb 2018
  • ShareSpark Member
where is fast download i cant download orignal .. error { "error": { "errors": [ { "domain": "global", "reason": "storageQuotaExceeded", "message": "The user's Drive storage quota has been exceeded." } ], "code": 403, "message": "The user's Drive storage quota has been exceeded." } }  how to fix this

September 09, 2018, 07:24:38 PM
Reply #2
  • Conqueror
  • Elite Forces
  • *****
  • Thank You: 493
  • Reputation: 185
  • Activity:
    19.8%
  • Country: in
  • Posts: 1130
  • Topics: 490
  • Join Date: Oct 2015
  • Hit ThanX Button 🔳 N Repute Button 🔳
where is fast download i cant download orignal .. error { "error": { "errors": [ { "domain": "global", "reason": "storageQuotaExceeded", "message": "The user's Drive storage quota has been exceeded." } ], "code": 403, "message": "The user's Drive storage quota has been exceeded." } }  how to fix this

Thats Means U R Google Drive Full Delete Same File If U Like This Size File As Same
Hit Thnx Button 🔳 N + Repute Button 🔳 Always Appreciate UploadeR 🤗 GiVe Respect GeT Respect :yu:

November 20, 2018, 08:59:12 PM
Reply #3
  • Senior Member
  • ***
  • Thank You: 4
  • Reputation: 1
  • Activity:
    16.4%
  • Country: pk
  • Posts: 217
  • Topics: 7
  • Join Date: Mar 2013
  • ShareSpark Member

Tags: error 
 

Related Topics





Back to top