+ ShareSpark.net »  :::: Dubbed Zone (Dubbed English in Hindi) » English Movies Dubbed in Hindi » High Resolution Movies
|- Warcraft (2016) 1080p BluRay x264 Dual Audio [Hindi 640 Kbps DD5.1 - English DD5.1]- Esub ~ Ranvijay


TV and Appliances

Warcraft (2016) 1080p BluRay x264 Dual Audio [Hindi 640 Kbps DD5.1 - English DD5.1]- Esub ~ Ranvijay

0 Members and 1 Guest are viewing this topic.

August 26, 2018, 08:07:51 PM
  • Global Moderator
  • Legend Member
  • *****
  • Topic Author
  • Thank You: 11195
  • Reputation: 2240
  • Activity:
    100%
  • Country: in
  • Posts: 5470
  • Topics: 4514
  • Join Date: Jan 2014
  • ıllıllı ѕмoĸιng ιѕ good ғor нealтн ıllıllı :)






Warcraft (2016) 1080p BluRay x264 Dual Audio [Hindi 640 Kbps DD5.1 - English DD5.1]- Esub ~ Ranvijay


Thanks To Marty McFly For Hindi Audio

Buy RDP Online




Quote
General
Format                                   : Matroska
Format version                           : Version 4 / Version 2
File size                                : 4.82 GiB
Duration                                 : 2 h 3 min
Overall bit rate                         : 5 593 kb/s
Movie name                               : Warcraft (2016) 1080p BluRay x264 Dual Audio [Hindi 640 Kbps DD5.1 - English DD5.1]- Esub ~ Ranvijay

Video
ID                                       : 1
Format                                   : AVC
Format/Info                              : Advanced Video Codec
Duration                                 : 2 h 3 min
Bit rate                                 : 4 500 kb/s
Width                                    : 1 920 pixels
Height                                   : 790 pixels
Display aspect ratio                     : 2.40:1
Frame rate mode                          : Constant
Frame rate                               : 23.976 (24000/1001) FPS
Color space                              : YUV
Chroma subsampling                       : 4:2:0
Bit depth                                : 8 bits
Scan type                                : Progressive
Bits/(Pixel*Frame)                       : 0.124
Stream size                              : 3.87 GiB (80%)
Title                                    : ~Ranvijay~

Audio #1
ID                                       : 2
Format                                   : AC-3
Format/Info                              : Audio Coding 3
Codec ID                                 : A_AC3
Duration                                 : 2 h 3 min
Bit rate mode                            : Constant
Bit rate                                 : 640 kb/s
Channel(s)                               : 6 channels
Channel positions                        : Front: L C R, Side: L R, LFE
Sampling rate                            : 48.0 kHz
Frame rate                               : 31.250 FPS (1536 SPF)
Bit depth                                : 16 bits
Compression mode                         : Lossy
Delay relative to video                  : -83 ms
Stream size                              : 564 MiB (11%)
Title                                    : ~Ranvijay~
Language                                 : Hindi
Service kind                             : Complete Main
Default                                  : Yes
Forced                                   : Yes

Audio #2
ID                                       : 3
Format                                   : AC-3
Format/Info                              : Audio Coding 3
Codec ID                                 : A_AC3
Duration                                 : 2 h 3 min
Bit rate mode                            : Constant
Bit rate                                 : 448 kb/s
Channel(s)                               : 6 channels
Channel positions                        : Front: L C R, Side: L R, LFE
Sampling rate                            : 48.0 kHz
Frame rate                               : 31.250 FPS (1536 SPF)
Bit depth                                : 16 bits
Compression mode                         : Lossy
Delay relative to video                  : -83 ms
Stream size                              : 395 MiB (8%)
Title                                    : ~Ranvijay~
Language                                 : English
Service kind                             : Complete Main
Default                                  : No
Forced                                   : No

Text
ID                                       : 4
Format                                   : PGS
Muxing mode                              : zlib
Codec ID                                 : S_HDMV/PGS
Codec ID/Info                            : Picture based subtitle format used on BDs/HD-DVDs
Duration                                 : 1 h 53 min
Bit rate                                 : 29.4 kb/s
Count of elements                        : 2787
Stream size                              : 23.9 MiB (0%)
Title                                    : ~Ranvijay~
Language                                 : English
Default                                  : Yes
Forced                                   : Yes
















:download:

Quote


File Leeched & Uploaded From




Don't walk as you are king, walk as you don't care who the king is....!!
Never argue with an idiot. They drag you down to their level and then beat you with experience?

Share this topic on FacebookShare this topic on GoogleShare this topic on MySpaceShare this topic on TwitterShare this topic on Yahoo




Don't walk as you are king, walk as you don't care who the king is....!!

Thanks given by:


November 06, 2018, 06:05:40 PM
Reply #1
  • Senior Member
  • ***
  • Thank You: 4
  • Reputation: 1
  • Activity:
    16.4%
  • Country: pk
  • Posts: 217
  • Topics: 7
  • Join Date: Mar 2013
  • ShareSpark Member

Tags:
 

Related Topics





Back to top