+ ShareSpark.net »  :::: Dubbed Zone (Dubbed English in Hindi) » English Movies Dubbed in Hindi » High Resolution Movies
|- Fast And Furious Collection (2001-2017) 1080p BluRay x264 Dual Audio [Hindi DD5.1 640 Kbps - English


One Plus 6
  • Fast And Furious Collection (2001-2017) 1080p BluRay x264 Dual Audio [Hindi DD5.1 640 Kbps - English 5 1
Currently:  

Fast And Furious Collection (2001-2017) 1080p BluRay x264 Dual Audio [Hindi DD5.1 640 Kbps - English

0 Members and 1 Guest are viewing this topic.

August 19, 2018, 01:33:06 PM
  • Global Moderator
  • Legend Member
  • *****
  • Topic Author
  • Thank You: 11195
  • Reputation: 2240
  • Activity:
    100%
  • Country: in
  • Posts: 5470
  • Topics: 4514
  • Join Date: Jan 2014
  • ıllıllı ѕмoĸιng ιѕ good ғor нealтн ıllıllı :)




Fast And Furious Collection (2001-2017) 1080p BluRay x264 Dual Audio [Hindi DD5.1 640 Kbps - English DD5.1] - Esub ~ Ranvijay

Thanks To The Punisher & Hammer For Untouched Hindi Audios

Buy RDP Online





The Fast And The Furious (2001) 1080p BluRay x264 Dual Audio [Hindi DD5.1 - English DD5.1] - Esub ~ Ranvijay

Quote
Format                                   : Matroska
Format version                           : Version 4 / Version 2
File size                                : 4.55 GiB
Duration                                 : 1 h 46 min
Overall bit rate                         : 6 098 kb/s
Movie name                               : The Fast And The Furious (2001) 1080p BluRay x264 Dual Audio [Hindi DD5.1 - English DD5.1] - Esub ~ Ranvijay

Video
ID                                       : 1
Format                                   : AVC
Format/Info                              : Advanced Video Codec
Duration                                 : 1 h 46 min
Bit rate                                 : 5 000 kb/s
Width                                    : 1 920 pixels
Height                                   : 816 pixels
Display aspect ratio                     : 2.35:1
Frame rate mode                          : Constant
Frame rate                               : 23.976 (24000/1001) FPS
Stream size                              : 3.73 GiB (82%)
Title                                    : ~Ranvijay~

Audio #1
ID                                       : 2
Format                                   : AC-3
Duration                                 : 1 h 46 min
Bit rate mode                            : Constant
Bit rate                                 : 640 kb/s
Channel(s)                               : 6 channels
Channel positions                        : Front: L C R, Side: L R, LFE
Title                                    : ~Ranvijay~
Language                                 : Hindi

Audio #2
ID                                       : 3
Format                                   : AC-3
Duration                                 : 1 h 46 min
Bit rate mode                            : Constant
Bit rate                                 : 448 kb/s
Channel(s)                               : 6 channels
Channel positions                        : Front: L C R, Side: L R, LFE
Title                                    : ~Ranvijay~
Language                                 : English

Text
ID                                       : 4
Format                                   : PGS
Stream size                              : 20.2 MiB (0%)
Title                                    : ~Ranvijay~
Language                                 : English








2 Fast 2 Furious (2003) 1080p BluRay x264 Dual Audio [Hindi DD5.1 - English DD5.1] - Esub ~ Ranvijay

Quote
Format                                   : Matroska
Format version                           : Version 4 / Version 2
File size                                : 4.58 GiB
Duration                                 : 1 h 47 min
Overall bit rate                         : 6 096 kb/s
Movie name                               : 2 Fast 2 Furious (2003) 1080p BluRay x264 Dual Audio [Hindi DD5.1 - English DD5.1] - Esub ~ Ranvijay

Video
ID                                       : 1
Format                                   : AVC
Format/Info                              : Advanced Video Codec
Duration                                 : 1 h 47 min
Bit rate                                 : 5 000 kb/s
Width                                    : 1 920 pixels
Height                                   : 816 pixels
Display aspect ratio                     : 2.35:1
Frame rate mode                          : Constant
Frame rate                               : 23.976 (24000/1001) FPS
Stream size                              : 3.76 GiB (82%)
Title                                    : ~Ranvijay~

Audio #1
ID                                       : 2
Format                                   : AC-3
Bit rate mode                            : Constant
Bit rate                                 : 640 kb/s
Channel(s)                               : 6 channels
Channel positions                        : Front: L C R, Side: L R, LFE
Title                                    : ~Ranvijay~
Language                                 : Hindi

Audio #2
ID                                       : 3
Format                                   : AC-3
Bit rate mode                            : Constant
Bit rate                                 : 448 kb/s
Channel(s)                               : 6 channels
Channel positions                        : Front: L C R, Side: L R, LFE
Title                                    : ~Ranvijay~
Language                                 : English

Text
ID                                       : 4
Format                                   : PGS
Title                                    : ~Ranvijay~
Language                                 : English










The Fast and the Furious Tokyo Drift (2006) 1080p BluRay x264 Dual Audio [Hindi DD5.1 - English DD5.1] - Esub ~ Ranvijay

Quote
Format                                   : Matroska
Format version                           : Version 4 / Version 2
File size                                : 4.44 GiB
Duration                                 : 1 h 44 min
Overall bit rate                         : 6 094 kb/s
Movie name                               : The Fast and the Furious Tokyo Drift (2006) 1080p BluRay x264 Dual Audio [Hindi DD5.1 - English DD5.1] - Esub ~ Ranvijay

Video
ID                                       : 1
Format                                   : AVC
Format/Info                              : Advanced Video Codec
Duration                                 : 1 h 44 min
Bit rate                                 : 5 000 kb/s
Width                                    : 1 920 pixels
Height                                   : 816 pixels
Display aspect ratio                     : 2.35:1
Frame rate mode                          : Constant
Frame rate                               : 23.976 (24000/1001) FPS
Stream size                              : 3.64 GiB (82%)
Title                                    : ~Ranvijay~

Audio #1
ID                                       : 2
Format                                   : AC-3
Duration                                 : 1 h 44 min
Bit rate mode                            : Constant
Bit rate                                 : 640 kb/s
Channel(s)                               : 6 channels
Channel positions                        : Front: L C R, Side: L R, LFE
Title                                    : ~Ranvijay~
Language                                 : Hindi

Audio #2
ID                                       : 3
Format                                   : AC-3
Duration                                 : 1 h 44 min
Bit rate mode                            : Constant
Bit rate                                 : 448 kb/s
Channel(s)                               : 6 channels
Channel positions                        : Front: L C R, Side: L R, LFE
Title                                    : ~Ranvijay~
Language                                 : English

Text
ID                                       : 4
Format                                   : PGS
Title                                    : ~Ranvijay~
Language                                 : English









Fast & Furious (2009) 1080p BluRay x264 Dual Audio [Hindi DD5.1 - English DD5.1] - Esub ~ Ranvijay

Quote
Format                                   : Matroska
Format version                           : Version 4 / Version 2
File size                                : 4.55 GiB
Duration                                 : 1 h 46 min
Overall bit rate                         : 6 091 kb/s
Movie name                               : Fast & Furious (2009) 1080p BluRay x264 Dual Audio [Hindi DD5.1 - English DD5.1] - Esub ~ Ranvijay

Video
ID                                       : 1
Format                                   : AVC
Format/Info                              : Advanced Video Codec
Duration                                 : 1 h 46 min
Bit rate                                 : 5 000 kb/s
Width                                    : 1 920 pixels
Height                                   : 800 pixels
Display aspect ratio                     : 2.40:1
Frame rate mode                          : Constant
Frame rate                               : 23.976 (24000/1001) FPS
Stream size                              : 3.73 GiB (82%)
Title                                    : ~Ranvijay~

Audio #1
ID                                       : 2
Format                                   : AC-3
Bit rate mode                            : Constant
Bit rate                                 : 640 kb/s
Channel(s)                               : 6 channels
Channel positions                        : Front: L C R, Side: L R, LFE
Title                                    : ~Ranvijay~
Language                                 : Hindi

Audio #2
ID                                       : 3
Format                                   : AC-3
Bit rate mode                            : Constant
Bit rate                                 : 448 kb/s
Channel(s)                               : 6 channels
Channel positions                        : Front: L C R, Side: L R, LFE
Title                                    : ~Ranvijay~
Language                                 : English

Text
ID                                       : 4
Format                                   : PGS
Title                                    : ~Ranvijay~
Language                                 : English











Fast Five (2011) 1080p BluRay x264 Dual Audio [Hindi DD5.1 - English DD5.1] - Esub ~ Ranvijay


Quote
Format                                   : Matroska
Format version                           : Version 4 / Version 2
File size                                : 4.64 GiB
Duration                                 : 2 h 10 min
Overall bit rate                         : 5 095 kb/s
Movie name                               : Fast Five (2011) 1080p BluRay x264 Dual Audio [Hindi DD5.1 - English DD5.1] - Esub ~ Ranvijay

Video
ID                                       : 1
Format                                   : AVC
Format/Info                              : Advanced Video Codec
Duration                                 : 2 h 10 min
Bit rate                                 : 4 000 kb/s
Width                                    : 1 920 pixels
Height                                   : 816 pixels
Display aspect ratio                     : 2.35:1
Frame rate mode                          : Constant
Frame rate                               : 23.976 (24000/1001) FPS
Stream size                              : 3.64 GiB (78%)
Title                                    : ~Ranvijay~

Audio #1
ID                                       : 2
Format                                   : AC-3
Bit rate mode                            : Constant
Bit rate                                 : 640 kb/s
Channel(s)                               : 6 channels
Channel positions                        : Front: L C R, Side: L R, LFE
Title                                    : ~Ranvijay~
Language                                 : Hindi

Audio #2
ID                                       : 3
Format                                   : AC-3
Bit rate mode                            : Constant
Bit rate                                 : 448 kb/s
Channel(s)                               : 6 channels
Channel positions                        : Front: L C R, Side: L R, LFE
Title                                    : ~Ranvijay~
Language                                 : English

Text
ID                                       : 4
Format                                   : PGS
Title                                    : ~Ranvijay~
Language                                 : English










Fast and Furious 6 (2013) 1080p BluRay x264 Dual Audio [Hindi DTS 5.1 - English DD5.1] - Esub ~ Ranvijay


Quote
Format                                   : Matroska
Format version                           : Version 4 / Version 2
File size                                : 4.75 GiB
Duration                                 : 2 h 10 min
Overall bit rate                         : 5 228 kb/s
Movie name                               : Fast and Furious 6 (2013) 1080p BluRay x264 Dual Audio [Hindi DTS 5.1 - English DD5.1] - Esub ~ Ranvijay

Video
ID                                       : 1
Format                                   : AVC
Format/Info                              : Advanced Video Codec
Duration                                 : 2 h 10 min
Bit rate                                 : 4 000 kb/s
Width                                    : 1 920 pixels
Height                                   : 816 pixels
Display aspect ratio                     : 2.35:1
Frame rate mode                          : Constant
Frame rate                               : 23.976 (24000/1001) FPS
Stream size                              : 3.64 GiB (77%)
Title                                    : ~Ranvijay~

Audio #1
ID                                       : 2
Format                                   : DTS
Bit rate mode                            : Constant
Bit rate                                 : 768 kb/s
Channel(s)                               : 6 channels
Channel positions                        : Front: L C R, Side: L R, LFE
Title                                    : ~Ranvijay~
Language                                 : Hindi

Audio #2
ID                                       : 3
Format                                   : AC-3
Bit rate mode                            : Constant
Bit rate                                 : 448 kb/s
Channel(s)                               : 6 channels
Channel positions                        : Front: L C R, Side: L R, LFE
Title                                    : ~Ranvijay~
Language                                 : English

Text
ID                                       : 4
Format                                   : PGS
Title                                    : ~Ranvijay~
Language                                 : English











Furious 7 (2015) 1080p BluRay x264 Dual Audio [Hindi DD5.1 - English DD5.1] - Esub ~ Ranvijay

Quote
Format                                   : Matroska
Format version                           : Version 4 / Version 2
File size                                : 5.19 GiB
Duration                                 : 2 h 17 min
Overall bit rate                         : 5 408 kb/s
Movie name                               : Furious 7 (2015) 1080p BluRay x264 Dual Audio [Hindi DD5.1 - English DD5.1] - Esub ~ Ranvijay

Video
ID                                       : 1
Format                                   : AVC
Format/Info                              : Advanced Video Codec
Duration                                 : 2 h 17 min
Bit rate                                 : 4 500 kb/s
Width                                    : 1 920 pixels
Height                                   : 800 pixels
Display aspect ratio                     : 2.40:1
Frame rate mode                          : Constant
Frame rate                               : 23.976 (24000/1001) FPS
Stream size                              : 4.32 GiB (83%)
Title                                    : ~Ranvijay~

Audio #1
ID                                       : 2
Format                                   : AC-3
Bit rate mode                            : Constant
Bit rate                                 : 448 kb/s
Channel(s)                               : 6 channels
Channel positions                        : Front: L C R, Side: L R, LFE
Title                                    : ~Ranvijay~
Language                                 : Hindi

Audio #2
ID                                       : 3
Format                                   : AC-3
Bit rate mode                            : Constant
Bit rate                                 : 448 kb/s
Channel(s)                               : 6 channels
Channel positions                        : Front: L C R, Side: L R, LFE
Title                                    : ~Ranvijay~
Language                                 : English

Text
ID                                       : 4
Format                                   : PGS
Title                                    : ~Ranvijay~
Language                                 : English











The Fate of the Furious (2017) 1080p BluRay x264 Dual Audio [Hindi DTS 5.1 - English DD5.1] - Msubs ~ Ranvijay


Quote
Format                                   : Matroska
Format version                           : Version 4 / Version 2
File size                                : 5.88 GiB
Duration                                 : 2 h 15 min
Overall bit rate                         : 6 190 kb/s
Movie name                               : The Fate of the Furious (2017) 1080p BluRay x264 Dual Audio [Hindi DTS 5.1 - English DD5.1] - Msubs ~ Ranvijay

Video
ID                                       : 1
Format                                   : AVC
Format/Info                              : Advanced Video Codec
Duration                                 : 2 h 15 min
Bit rate                                 : 4 214 kb/s
Width                                    : 1 920 pixels
Height                                   : 804 pixels
Display aspect ratio                     : 2.40:1
Frame rate mode                          : Constant
Frame rate                               : 23.976 (24000/1001) FPS
Stream size                              : 4.00 GiB (68%)
Title                                    : ~Ranvijay~

Audio #1
ID                                       : 2
Format                                   : DTS
Bit rate mode                            : Constant
Bit rate                                 : 1 509 kb/s
Channel(s)                               : 6 channels
Channel positions                        : Front: L C R, Side: L R, LFE
Title                                    : ~Ranvijay~
Language                                 : Hindi

Audio #2
ID                                       : 3
Format                                   : AC-3
Bit rate mode                            : Constant
Bit rate                                 : 448 kb/s
Channel(s)                               : 6 channels
Channel positions                        : Front: L C R, Side: L R, LFE
Sampling rate                            : 48.0 kHz
Title                                    : ~Ranvijay~
Language                                 : English

Text #1
ID                                       : 4
Title                                    : ~Ranvijay~
Language                                 : English
Default                                  : Yes

Text #2
ID                                       : 5
Format                                   : PGS
Title                                    : ~Ranvijay~
Language                                 : Hindi









:download:

Quote









SAMPLES

Quote









File Leeched & Uploaded From




Don't walk as you are king, walk as you don't care who the king is....!!
Never argue with an idiot. They drag you down to their level and then beat you with experience?

Share this topic on FacebookShare this topic on GoogleShare this topic on MySpaceShare this topic on TwitterShare this topic on Yahoo

« Last Edit: August 20, 2018, 11:15:25 AM by Rάήνίјάч1234 »



Don't walk as you are king, walk as you don't care who the king is....!!

Thanks given by:


August 19, 2018, 08:12:30 PM
Reply #1
  • ***************
  • Team SSX
  • Legend Member
  • ***
  • Thank You: 1786
  • Reputation: 547
  • Activity:
    100%
  • Country: pk
  • Posts: 1876
  • Topics: 1167
  • Join Date: Mar 2015
  • =$ Success Never Ends $=

August 20, 2018, 09:30:13 AM
Reply #2
  • Hero Member
  • ***
  • Thank You: 47
  • Reputation: 11
  • Activity:
    4.2%
  • Country: pk
  • Posts: 389
  • Topics: 107
  • Join Date: Sep 2014
  • ShareSpark Member
fate of furious 2017 movie link is in sample and sample link is in movies links,,, correct it

August 20, 2018, 11:16:04 AM
Reply #3
  • Global Moderator
  • Legend Member
  • *****
  • Topic Author
  • Thank You: 11195
  • Reputation: 2240
  • Activity:
    100%
  • Country: in
  • Posts: 5470
  • Topics: 4514
  • Join Date: Jan 2014
  • ıllıllı ѕмoĸιng ιѕ good ғor нealтн ıllıllı :)

Don't walk as you are king, walk as you don't care who the king is....!!

August 20, 2018, 08:58:36 PM
Reply #4
  • Newbie
  • **
  • Thank You: 0
  • Reputation: 0
  • Activity:
    0.4%
  • Country: in
  • Posts: 3
  • Topics: 0
  • Join Date: Jan 2016
  • ShareSpark Member
Awesome Work Brother Keep it up, Is Fate of Furious Movie Hindi Audio Synced Properly bcoz in Sample it's delayed. Plzz Reply,

August 21, 2018, 01:35:11 AM
Reply #5
  • Global Moderator
  • Legend Member
  • *****
  • Topic Author
  • Thank You: 11195
  • Reputation: 2240
  • Activity:
    100%
  • Country: in
  • Posts: 5470
  • Topics: 4514
  • Join Date: Jan 2014
  • ıllıllı ѕмoĸιng ιѕ good ғor нealтн ıllıllı :)
Sorry But yes Its Unsync A Little Bit

Download It And Set Delay +1200 And Enjoy

Don't walk as you are king, walk as you don't care who the king is....!!

August 21, 2018, 06:24:46 AM
Reply #6
  • Newbie
  • **
  • Thank You: 0
  • Reputation: 0
  • Activity:
    0.4%
  • Country: in
  • Posts: 3
  • Topics: 0
  • Join Date: Jan 2016
  • ShareSpark Member

November 20, 2018, 09:19:48 PM
Reply #7
  • Senior Member
  • ***
  • Thank You: 4
  • Reputation: 1
  • Activity:
    16.4%
  • Country: pk
  • Posts: 217
  • Topics: 7
  • Join Date: Mar 2013
  • ShareSpark Member

Tags:
 

Related Topics





Back to top