+ ShareSpark.net »  :::: Dubbed Zone (Dubbed English in Hindi) » English Movies Dubbed in Hindi » High Resolution Movies
|- The Twilight Saga: Breaking Dawn - Part 2 (2011) 1080p BluRay x264 Dual Audio [Hindi DD2.0 - English


Redmi 6A
  • The Twilight Saga: Breaking Dawn - Part 2 (2011) 1080p BluRay x264 Dual Audio [Hindi DD2.0 - English 5 1
Currently:  

The Twilight Saga: Breaking Dawn - Part 2 (2011) 1080p BluRay x264 Dual Audio [Hindi DD2.0 - English

0 Members and 1 Guest are viewing this topic.

June 25, 2018, 02:28:18 PM
  • Global Moderator
  • Legend Member
  • *****
  • Topic Author
  • Thank You: 11331
  • Reputation: 2272
  • Activity:
    100%
  • Country: in
  • Posts: 5493
  • Topics: 4531
  • Join Date: Jan 2014
  • ıllıllı ѕмoĸιng ιѕ good ғor нealтн ıllıllı :)
The Twilight Saga: Breaking Dawn - Part 2 (2011) 1080p BluRay x264 Dual Audio [Hindi DD2.0 - English DD5.1] - Esub ~ Ranvijay

Thanks To Maverick Monu & The Punisher For Hindi Audio





Quote
Format                                   : Matroska
Format version                           : Version 4 / Version 2
File size                                : 4.53 GiB
Duration                                 : 1 h 55 min
Overall bit rate                         : 5 625 kb/s
Movie name                               : The Twilight Saga Breaking Dawn - Part 2 (2011) 1080p BluRay x264 Dual Audio [Hindi DD2.0 - English DD5.1] - Esub ~ Ranvijay
Encoded date                             : UTC 2018-06-25 08:21:11
Writing application                      : mkvmerge v10.0.0 ('To Drown In You') 64bit
Writing library                          : libebml v1.3.4 + libmatroska v1.4.5

Video
ID                                       : 1
Format                                   : AVC
Format/Info                              : Advanced Video Codec
Duration                                 : 1 h 55 min
Bit rate                                 : 4 983 kb/s
Width                                    : 1 920 pixels
Height                                   : 800 pixels
Display aspect ratio                     : 2.40:1
Frame rate mode                          : Constant
Frame rate                               : 23.976 (24000/1001) FPS
Color space                              : YUV
Chroma subsampling                       : 4:2:0
Bit depth                                : 8 bits
Scan type                                : Progressive
Bits/(Pixel*Frame)                       : 0.135
Stream size                              : 4.01 GiB (89%)
Title                                    : ~Ranvijay~
Language                                 : English
Default                                  : Yes
Forced                                   : No

Audio #1
ID                                       : 2
Format                                   : AC-3
Format/Info                              : Audio Coding 3
Codec ID                                 : A_AC3
Duration                                 : 1 h 55 min
Bit rate mode                            : Constant
Bit rate                                 : 192 kb/s
Channel(s)                               : 2 channels
Channel positions                        : Front: L R
Sampling rate                            : 48.0 kHz
Frame rate                               : 31.250 FPS (1536 SPF)
Bit depth                                : 16 bits
Compression mode                         : Lossy
Stream size                              : 158 MiB (3%)
Title                                    : ~Ranvijay~
Language                                 : Hindi
Service kind                             : Complete Main
Default                                  : Yes
Forced                                   : No

Audio #2
ID                                       : 3
Format                                   : AC-3
Format/Info                              : Audio Coding 3
Codec ID                                 : A_AC3
Duration                                 : 1 h 55 min
Bit rate mode                            : Constant
Bit rate                                 : 448 kb/s
Channel(s)                               : 6 channels
Channel positions                        : Front: L C R, Side: L R, LFE
Sampling rate                            : 48.0 kHz
Frame rate                               : 31.250 FPS (1536 SPF)
Bit depth                                : 16 bits
Compression mode                         : Lossy
Stream size                              : 369 MiB (8%)
Title                                    : ~Ranvijay~
Language                                 : English
Service kind                             : Complete Main
Default                                  : No
Forced                                   : No

Text
ID                                       : 4
Format                                   : UTF-8
Codec ID                                 : S_TEXT/UTF8
Codec ID/Info                            : UTF-8 Plain Text
Duration                                 : 1 h 38 min
Bit rate                                 : 39 b/s
Count of elements                        : 1099
Stream size                              : 28.7 KiB (0%)
Title                                    : ~Ranvijay~
Language                                 : English
Default                                  : Yes
Forced                                   : No

Menu
00:00:00.000                             : :Chapter 01
00:08:04.067                             : :Chapter 02
00:13:35.398                             : :Chapter 03
00:18:36.073                             : :Chapter 04
00:22:11.080                             : :Chapter 05
00:30:03.343                             : :Chapter 06
00:38:06.159                             : :Chapter 07
00:44:23.619                             : :Chapter 08
00:48:35.830                             : :Chapter 09
00:52:31.440                             : :Chapter 10
00:58:11.947                             : :Chapter 11
01:02:10.352                             : :Chapter 12
01:08:26.060                             : :Chapter 13
01:11:38.503                             : :Chapter 14
01:20:35.456                             : :Chapter 15
01:24:57.509                             : :Chapter 16
01:32:17.157                             : :Chapter 17
01:38:08.966                             : :Chapter 18








:download:

Quote


File Leeched & Uploaded From




Don't walk as you are king, walk as you don't care who the king is....!!
Never argue with an idiot. They drag you down to their level and then beat you with experience?

Share this topic on FacebookShare this topic on GoogleShare this topic on MySpaceShare this topic on TwitterShare this topic on Yahoo

« Last Edit: September 28, 2018, 10:42:41 AM by Rάήνίјάч1234 »



Don't walk as you are king, walk as you don't care who the king is....!!

Thanks given by:


June 25, 2018, 02:32:51 PM
Reply #1
  • ***************
  • Team SSX
  • Legend Member
  • ***
  • Thank You: 1835
  • Reputation: 553
  • Activity:
    100%
  • Country: pk
  • Posts: 1935
  • Topics: 1219
  • Join Date: Mar 2015
  • =$ Success Never Ends $=

July 26, 2018, 04:34:52 PM
Reply #2
  • Devoted Member
  • **
  • Thank You: 0
  • Reputation: 5
  • Activity:
    30.2%
  • Country: in
  • Posts: 167
  • Topics: 0
  • Join Date: Jul 2018
  • ShareSpark Member
link is working but i found this error every time .
"storageQuotaExceeded", "message": "The user's Drive storage quota has been exceeded."
please fix this .. thanks

July 26, 2018, 11:23:31 PM
Reply #3
  • Global Moderator
  • Legend Member
  • *****
  • Topic Author
  • Thank You: 11331
  • Reputation: 2272
  • Activity:
    100%
  • Country: in
  • Posts: 5493
  • Topics: 4531
  • Join Date: Jan 2014
  • ıllıllı ѕмoĸιng ιѕ good ғor нealтн ıllıllı :)
link is working but i found this error every time .
"storageQuotaExceeded", "message": "The user's Drive storage quota has been exceeded."
please fix this .. thanks
check ur google drive space. Free some Space

Don't walk as you are king, walk as you don't care who the king is....!!

July 27, 2018, 07:28:55 PM
Reply #4
  • Devoted Member
  • **
  • Thank You: 0
  • Reputation: 5
  • Activity:
    30.2%
  • Country: in
  • Posts: 167
  • Topics: 0
  • Join Date: Jul 2018
  • ShareSpark Member

August 18, 2018, 06:14:13 AM
Reply #5
  • Semi Newbie
  • **
  • Thank You: 0
  • Reputation: 0
  • Activity:
    1%
  • Country: in
  • Posts: 19
  • Topics: 0
  • Join Date: Nov 2015
  • ShareSpark Member
Link is not working. Shows 404 error message... Kindly check it.

September 28, 2018, 10:43:27 AM
Reply #6
  • Global Moderator
  • Legend Member
  • *****
  • Topic Author
  • Thank You: 11331
  • Reputation: 2272
  • Activity:
    100%
  • Country: in
  • Posts: 5493
  • Topics: 4531
  • Join Date: Jan 2014
  • ıllıllı ѕмoĸιng ιѕ good ғor нealтн ıllıllı :)

Don't walk as you are king, walk as you don't care who the king is....!!

November 17, 2018, 11:44:56 PM
Reply #7
  • Newbie
  • **
  • Thank You: 0
  • Reputation: 0
  • Activity:
    0.2%
  • Country: in
  • Posts: 1
  • Topics: 0
  • Join Date: Apr 2018
  • ShareSpark Member
It says "404: Page Not Found. The file you are trying to download is no longer available."

Tags:
 

Related Topics





Back to top