+ ShareSpark.net »  :::: Dubbed Zone (Dubbed English in Hindi) » English Movies Dubbed in Hindi » High Resolution Movies
|- Guardians of the Galaxy Collection (2014-2017) 1080p BluRay Dual Audio [Hindi-English] DD5.1 -Esubs


Amazon Pantry Offer
  • Guardians of the Galaxy Collection (2014-2017) 1080p BluRay Dual Audio [Hindi-English] DD5.1 -Esubs 5 1
Currently:  

Guardians of the Galaxy Collection (2014-2017) 1080p BluRay Dual Audio [Hindi-English] DD5.1 -Esubs

0 Members and 1 Guest are viewing this topic.

May 07, 2018, 12:57:09 PM
  • Global Moderator
  • Legend Member
  • *****
  • Topic Author
  • Thank You: 11195
  • Reputation: 2240
  • Activity:
    100%
  • Country: in
  • Posts: 5470
  • Topics: 4514
  • Join Date: Jan 2014
  • ıllıllı ѕмoĸιng ιѕ good ғor нealтн ıllıllı :)

Buy RDP Online



Guardians of the Galaxy Collection (2014-2017) 1080p BluRay Dual Audio [Hindi-English] DD5.1 -Esubs ~ Ranvijay



Guardians of the Galaxy (2014) 1080p BluRay x264 Dual Audio [Hindi DD5.1 - English DD5.1] - Esubs ~Ranvijay

Quote
Format                                   : Matroska
Format version                           : Version 4 / Version 2
File size                                : 4.92 GiB
Duration                                 : 2 h 0 min
Overall bit rate                         : 5 823 kb/s
Movie name                               : Guardians of the Galaxy (2014) 1080p BluRay x264 Dual Audio [Hindi DD5.1 - English DD5.1] - Esubs ~Ranvijay

Video
Duration                                 : 2 h 0 min
Bit rate                                 : 4 721 kb/s
Width                                    : 1 920 pixels
Height                                   : 800 pixels
Display aspect ratio                     : 2.40:1
Frame rate mode                          : Constant
Frame rate                               : 23.976 (24000/1001) FPS
Stream size                              : 3.99 GiB (81%)
Title                                    : ~Ranvijay~
Language                                 : English
Default                                  : Yes
Forced                                   : No

Audio #1
Format                                   : AC-3
Bit rate mode                            : Constant
Bit rate                                 : 640 kb/s
Channel(s)                               : 6 channels
Channel positions                        : Front: L C R, Side: L R, LFE
Stream size                              : 553 MiB (11%)
Title                                    : ~Ranvijay~
Language                                 : Hindi

Audio #2
Format                                   : AC-3
Bit rate mode                            : Constant
Bit rate                                 : 448 kb/s
Channel(s)                               : 6 channels
Channel positions                        : Front: L C R, Side: L R, LFE
Stream size                              : 387 MiB (8%)
Title                                    : ~Ranvijay~
Language                                 : English

Text #1
Title                                    : ~Ranvijay~
Language                                 : English

Text #2
Format                                   : UTF-8
Title                                    : ~Ranvijay~
Language                                 : English

Text #3
Format                                   : UTF-8
Title                                    : ~Ranvijay~
Language                                 : English

Text #4
Format                                   : PGS
Muxing mode                              : zlib
Title                                    : ~Ranvijay~
Language                                 : English

Menu
00:00:00.000                             : en:Prologue
00:04:05.703                             : en:Morag
00:11:21.806                             : en:Ronan The Accuser
00:15:21.712                             : en:A Man Of Honor
00:20:54.419                             : en:The Kyln
00:27:11.212                             : en:Crimes Against The Galaxy
00:33:58.828                             : en:Escaping The Kyln
00:44:28.290                             : en:Knowhere
00:50:53.008                             : en:I Do Not Dance
00:55:17.564                             : en:The Collector
00:59:45.206                             : en:Facing Off With Ronan
01:06:06.921                             : en:Something Incredibly Heroic
01:14:46.023                             : en:12 Percent Of A Plan
01:22:20.644                             : en:The Fleet Approaches
01:26:29.726                             : en:Inside The Dark Aster
01:30:23.876                             : en:Destroying Xandar
01:35:58.377                             : en:Protecting The Guardians
01:40:46.749                             : en:Guardians Of The Galaxy
01:47:35.365                             : en:Guardians Pardoned
01:53:16.623                             : en:End Credits
02:00:10.828                             : en:End Tag











Guardians of the Galaxy Vol. 2 (2017) 1080p Bluray x264 Dual Audio [Hindi DD5.1 - English DD5.1] - Esubs ~Ranvijay

Quote
Format                                   : Matroska
Format version                           : Version 4 / Version 2
File size                                : 4.92 GiB
Duration                                 : 2 h 0 min
Overall bit rate                         : 5 823 kb/s
Movie name                               : Guardians of the Galaxy (2014) 1080p BluRay x264 Dual Audio [Hindi DD5.1 - English DD5.1] - Esubs ~Ranvijay

Video
Duration                                 : 2 h 0 min
Bit rate                                 : 4 721 kb/s
Width                                    : 1 920 pixels
Height                                   : 800 pixels
Display aspect ratio                     : 2.40:1
Frame rate mode                          : Constant
Frame rate                               : 23.976 (24000/1001) FPS
Stream size                              : 3.99 GiB (81%)
Title                                    : ~Ranvijay~
Language                                 : English
Default                                  : Yes
Forced                                   : No

Audio #1
Format                                   : AC-3
Bit rate mode                            : Constant
Bit rate                                 : 640 kb/s
Channel(s)                               : 6 channels
Channel positions                        : Front: L C R, Side: L R, LFE
Stream size                              : 553 MiB (11%)
Title                                    : ~Ranvijay~
Language                                 : Hindi

Audio #2
Format                                   : AC-3
Bit rate mode                            : Constant
Bit rate                                 : 448 kb/s
Channel(s)                               : 6 channels
Channel positions                        : Front: L C R, Side: L R, LFE
Stream size                              : 387 MiB (8%)
Title                                    : ~Ranvijay~
Language                                 : English

Text #1
Format                                   : UTF-8
Title                                    : ~Ranvijay~
Language                                 : English

Text #2
Format                                   : UTF-8
Title                                    : ~Ranvijay~
Language                                 : English

Text #3
Format                                   : UTF-8
Title                                    : ~Ranvijay~
Language                                 : English

Text #4
Format                                   : PGS
Muxing mode                              : zlib
Title                                    : ~Ranvijay~
Language                                 : English

Menu
00:00:00.000                             : en:Prologue
00:04:05.703                             : en:Morag
00:11:21.806                             : en:Ronan The Accuser
00:15:21.712                             : en:A Man Of Honor
00:20:54.419                             : en:The Kyln
00:27:11.212                             : en:Crimes Against The Galaxy
00:33:58.828                             : en:Escaping The Kyln
00:44:28.290                             : en:Knowhere
00:50:53.008                             : en:I Do Not Dance
00:55:17.564                             : en:The Collector
00:59:45.206                             : en:Facing Off With Ronan
01:06:06.921                             : en:Something Incredibly Heroic
01:14:46.023                             : en:12 Percent Of A Plan
01:22:20.644                             : en:The Fleet Approaches
01:26:29.726                             : en:Inside The Dark Aster
01:30:23.876                             : en:Destroying Xandar
01:35:58.377                             : en:Protecting The Guardians
01:40:46.749                             : en:Guardians Of The Galaxy
01:47:35.365                             : en:Guardians Pardoned
01:53:16.623                             : en:End Credits
02:00:10.828                             : en:End Tag











:download:

Quote






File Leeched & Uploaded From




Don't walk as you are king, walk as you don't care who the king is....!!
Never argue with an idiot. They drag you down to their level and then beat you with experience?

Share this topic on FacebookShare this topic on GoogleShare this topic on MySpaceShare this topic on TwitterShare this topic on Yahoo

« Last Edit: May 07, 2018, 04:19:58 PM by Rάήνίјάч1234 »



Don't walk as you are king, walk as you don't care who the king is....!!

Thanks given by:


May 07, 2018, 01:09:05 PM
Reply #1
  • Semi Newbie
  • **
  • Thank You: 0
  • Reputation: 3
  • Activity:
    0%
  • Country: in
  • Posts: 32
  • Topics: 0
  • Join Date: Apr 2018
  • ShareSpark Member

May 07, 2018, 01:28:22 PM
Reply #2
  • Senior Member
  • ***
  • Thank You: 0
  • Reputation: 0
  • Activity:
    0.4%
  • Country: pk
  • Posts: 214
  • Topics: 0
  • Join Date: Jul 2017
  • ShareSpark Member
Thank You For This
Plz Add The Amazing Spiderman Both Movies As Well

May 07, 2018, 06:18:44 PM
Reply #3
  • Begginer
  • **
  • Thank You: 153
  • Reputation: 129
  • Activity:
    0%
  • Country: pk
  • Posts: 96
  • Topics: 16
  • Join Date: May 2018
  • ShareSpark Member

May 07, 2018, 07:22:58 PM
Reply #4
  • Devoted Member
  • **
  • Thank You: 0
  • Reputation: 12
  • Activity:
    0%
  • Country: in
  • Posts: 147
  • Topics: 0
  • Join Date: May 2014
  • ShareSpark Member

May 10, 2018, 09:05:12 PM
Reply #5
  • Semi Newbie
  • **
  • Thank You: 0
  • Reputation: 0
  • Activity:
    0%
  • Country: in
  • Posts: 17
  • Topics: 0
  • Join Date: Apr 2018
  • ShareSpark Member

May 10, 2018, 10:19:01 PM
Reply #6
  • Begginer
  • **
  • Thank You: 0
  • Reputation: 0
  • Activity:
    0%
  • Country: in
  • Posts: 81
  • Topics: 0
  • Join Date: Apr 2016
  • ShareSpark Member

October 23, 2018, 06:56:23 PM
Reply #7
  • Devoted Member
  • **
  • Thank You: 0
  • Reputation: 2
  • Activity:
    20.2%
  • Country: us
  • Posts: 183
  • Topics: 1
  • Join Date: Oct 2017
  • ShareSpark Member

November 06, 2018, 10:49:45 AM
Reply #8
  • Hero Member
  • ***
  • Thank You: 47
  • Reputation: 11
  • Activity:
    4.2%
  • Country: pk
  • Posts: 389
  • Topics: 107
  • Join Date: Sep 2014
  • ShareSpark Member

November 06, 2018, 11:23:34 AM
Reply #9
  • Global Moderator
  • Legend Member
  • *****
  • Topic Author
  • Thank You: 11195
  • Reputation: 2240
  • Activity:
    100%
  • Country: in
  • Posts: 5470
  • Topics: 4514
  • Join Date: Jan 2014
  • ıllıllı ѕмoĸιng ιѕ good ғor нealтн ıllıllı :)

Don't walk as you are king, walk as you don't care who the king is....!!

Tags:
 

Related Topics





Back to top