+ ShareSpark.net »  :::: Dubbed Zone (Dubbed English in Hindi) » English Movies Dubbed in Hindi » High Resolution Movies
|- Sherlock Holmes (2009-2011).Duology.1080p.BRRip.x264.[Hindi DD 2.0-English AAC 5.1] By~Hammer


Electroncs Sale

Sherlock Holmes (2009-2011).Duology.1080p.BRRip.x264.[Hindi DD 2.0-English AAC 5.1] By~Hammer

0 Members and 1 Guest are viewing this topic.

April 14, 2018, 01:54:26 AM
  • Global Moderator
  • Legend Member
  • *****
  • Topic Author
  • Thank You: 11195
  • Reputation: 2240
  • Activity:
    100%
  • Country: in
  • Posts: 5470
  • Topics: 4514
  • Join Date: Jan 2014
  • ıllıllı ѕмoĸιng ιѕ good ғor нealтн ıllıllı :)
Sherlock Holmes (2009-2011).Duology.1080p.BRRip.x264.[Hindi DD 2.0-English AAC 5.1] By~Hammer









Sherlock Holmes (2009) 1080p.BRRip.x264.[Hindi DD 2.0-English AAC 5.1] By~Hammer~

Quote
Format                                   : Matroska
Format version                           : Version 4 / Version 2
File size                                : 2.20 GiB
Duration                                 : 2 h 8 min
Overall bit rate                         : 2 452 kb/s
Movie name                               : Sherlock Holmes (2009) 1080p.BRRip.x264.[Hindi DD 2.0-English AAC 5.1] By~Hammer~

Video
ID                                       : 1
Format                                   : AVC
Format/Info                              : Advanced Video Codec
Format profile                           : [email protected]
Format settings                          : CABAC / 4 Ref Frames
Format settings, CABAC                   : Yes
Format settings, RefFrames               : 4 frames
Codec ID                                 : V_MPEG4/ISO/AVC
Duration                                 : 2 h 8 min
Bit rate                                 : 1 970 kb/s
Width                                    : 1 920 pixels
Height                                   : 1 080 pixels
Display aspect ratio                     : 16:9
Frame rate mode                          : Constant
Frame rate                               : 23.976 FPS
Writing library                          : x264 core 112
Language                                 : English
Default                                  : Yes

Audio #1
ID                                       : 2
Format                                   : AAC
Format/Info                              : Advanced Audio Codec
Format profile                           : LC
Codec ID                                 : A_AAC-2
Duration                                 : 2 h 8 min
Bit rate                                 : 256 kb/s
Channel(s)                               : 6 channels
Channel positions                        : Front: L C R, Side: L R, LFE
Sampling rate                            : 48.0 kHz
Frame rate                               : 46.875 FPS (1024 SPF)
Compression mode                         : Lossy
Stream size                              : 235 MiB (10%)
Title                                    : Eng By~Hammer~
Default                                  : No

Audio #2
ID                                       : 3
Format                                   : AC-3
Format/Info                              : Audio Coding 3
Codec ID                                 : A_AC3
Duration                                 : 2 h 8 min
Bit rate mode                            : Constant
Bit rate                                 : 224 kb/s
Channel(s)                               : 2 channels
Channel positions                        : Front: L R
Sampling rate                            : 48.0 kHz
Frame rate                               : 31.250 FPS (1536 SPF)
Bit depth                                : 16 bits
Compression mode                         : Lossy
Stream size                              : 206 MiB (9%)
Title                                    : Hindi Org VCD DD 2.0 By~Hammer~
Service kind                             : Complete Mai







Sherlock Holmes A Game Of Shadows (2011) 1080p.BRRip.x264.[Hindi DD 2.0-English AAC 5.1] By~Hammer~



Quote
Format                                   : Matroska
Format version                           : Version 4 / Version 2
File size                                : 2.20 GiB
Duration                                 : 2 h 8 min
Overall bit rate                         : 2 446 kb/s
Movie name                               : Sherlock Holmes A Game Of Shadows (2011) 1080p.BRRip.x264.[Hindi DD 2.0-English AAC 5.1] By~Hammer~

Video
ID                                       : 1
Format                                   : AVC
Format/Info                              : Advanced Video Codec
Format profile                           : [email protected]
Format settings                          : CABAC / 4 Ref Frames
Format settings, CABAC                   : Yes
Format settings, RefFrames               : 4 frames
Codec ID                                 : V_MPEG4/ISO/AVC
Duration                                 : 2 h 8 min
Bit rate                                 : 1 964 kb/s
Width                                    : 1 920 pixels
Height                                   : 800 pixels
Display aspect ratio                     : 2.40:1
Frame rate mode                          : Constant
Frame rate                               : 23.976 (24000/1001) FPS
Language                                 : English
Default                                  : Yes

Audio #1
ID                                       : 2
Format                                   : AAC
Format/Info                              : Advanced Audio Codec
Format profile                           : LC
Codec ID                                 : A_AAC-2
Duration                                 : 2 h 8 min
Bit rate                                 : 256 kb/s
Channel(s)                               : 6 channels
Channel positions                        : Front: L C R, Side: L R, LFE
Sampling rate                            : 48.0 kHz
Frame rate                               : 46.875 FPS (1024 SPF)
Compression mode                         : Lossy
Stream size                              : 236 MiB (10%)
Title                                    : Eng By~Hammer~
Language                                 : English
Default                                  : Yes

Audio #2
ID                                       : 3
Format                                   : AC-3
Format/Info                              : Audio Coding 3
Codec ID                                 : A_AC3
Duration                                 : 2 h 8 min
Bit rate mode                            : Constant
Bit rate                                 : 224 kb/s
Channel(s)                               : 2 channels
Channel positions                        : Front: L R
Sampling rate                            : 48.0 kHz
Frame rate                               : 31.250 FPS (1536 SPF)
Bit depth                                : 16 bits
Compression mode                         : Lossy
Stream size                              : 206 MiB (9%)
Title                                    : Hindi Org DVD By~Hammer~
Service kind                             : Complete Main
Default                                  : No





:download:

Quote




File Leeched & Uploaded From




Don't walk as you are king, walk as you don't care who the king is....!!
Never argue with an idiot. They drag you down to their level and then beat you with experience?

Share this topic on FacebookShare this topic on GoogleShare this topic on MySpaceShare this topic on TwitterShare this topic on Yahoo

« Last Edit: April 19, 2018, 01:20:58 PM by Rάήνίјάч1234 »



Don't walk as you are king, walk as you don't care who the king is....!!

Thanks given by:


April 14, 2018, 07:13:23 AM
Reply #1
  • Devoted Member
  • **
  • Thank You: 0
  • Reputation: 12
  • Activity:
    0%
  • Country: in
  • Posts: 147
  • Topics: 0
  • Join Date: May 2014
  • ShareSpark Member

May 11, 2018, 08:27:56 PM
Reply #2
  • Semi Newbie
  • **
  • Thank You: 0
  • Reputation: 0
  • Activity:
    0%
  • Country: in
  • Posts: 17
  • Topics: 0
  • Join Date: Apr 2018
  • ShareSpark Member

October 23, 2018, 06:52:05 PM
Reply #3
  • Devoted Member
  • **
  • Thank You: 0
  • Reputation: 2
  • Activity:
    20.2%
  • Country: us
  • Posts: 183
  • Topics: 1
  • Join Date: Oct 2017
  • ShareSpark Member

November 20, 2018, 07:43:08 PM
Reply #4
  • Senior Member
  • ***
  • Thank You: 4
  • Reputation: 1
  • Activity:
    16.4%
  • Country: pk
  • Posts: 217
  • Topics: 7
  • Join Date: Mar 2013
  • ShareSpark Member
@Rάήνίјάч1234

links are dead, can you reupload?

it would be awesome if you upload size around 5 6gb.

Tags:
 

Related Topics





Back to top