+ ShareSpark.net »  :::: Dubbed Zone (Dubbed English in Hindi) » English Movies Dubbed in Hindi » High Resolution Movies
|- Top Gun (1986) 1080p BDRip Dual Audio Org Hindi 5.1+Eng 5.1 -~{[email protected]}~-


10% SBI and 10% Discount
  • Top Gun (1986) 1080p BDRip Dual Audio Org Hindi 5.1+Eng 5.1 -~{[email protected]}~- 5 1
Currently:  

Top Gun (1986) 1080p BDRip Dual Audio Org Hindi 5.1+Eng 5.1 -~{[email protected]}~-

0 Members and 1 Guest are viewing this topic.

October 14, 2016, 07:28:01 AM
  • V.I.P.
  • Elite Member
  • ***
  • Topic Author
  • Thank You: 189
  • Reputation: 49
  • Activity:
    0.8%
  • Country: sa
  • Posts: 498
  • Topics: 469
  • Join Date: Jun 2014
  • ShareSpark Member







Complete name               : Top.Gun.(1986).1080p.BDRip.Dual.Audio.Org.Hindi.5.1+Eng.5.1.-~{DJ_DOOM$D@y}~-.mkv

Format                      : Matroska

Format version              : Version 4 / Version 2

File size                   : 2.93 GiB

Duration                    : 1 h 49 min

Overall bit rate mode       : Variable

Overall bit rate            : 3 833 kb/s

Movie name                  : Top.Gun.(1986).1080p.BDRip.Dual.Audio.Org.Hindi.5.1+Eng.5.1.-~{DJ_DOOM$D@y}~-



Video

ID                          : 1

Format                      : AVC

Format/Info                 : Advanced Video Codec

Format profile              : [email protected]

Format settings, CABAC      : Yes

Format settings, ReFrames   : 5 frames

Codec ID                    : V_MPEG4/ISO/AVC

Duration                    : 1 h 49 min

Bit rate mode               : Variable

Bit rate                    : 3 000 kb/s

Maximum bit rate            : 62.5 Mb/s

Width                       : 1 916 pixels

Height                      : 800 pixels

Display aspect ratio        : 2.40:1

Frame rate mode             : Constant

Frame rate                  : 23.976 (24000/1001) FPS

Color space                 : YUV

Chroma subsampling          : 4:2:0

Bit depth                   : 8 bits

Scan type                   : Progressive

Bits/(Pixel*Frame)          : 0.082

Stream size                 : 2.30 GiB (78%)

Title                       : Top.Gun.(1986).1080p.BDRip.Dual.Audio.Org.Hindi.5.1+Eng.5.1.-~{DJ_DOOM$D@y}~-

Language                    : English

Default                     : Yes

Forced                      : No



Audio #1

ID                          : 2

Format                      : AC-3

Format/Info                 : Audio Coding 3

Mode extension              : CM (complete main)

Format settings, Endianness : Big

Codec ID                    : A_AC3

Duration                    : 1 h 49 min

Bit rate mode               : Constant

Bit rate                    : 384 kb/s

Channel(s)                  : 6 channels

Channel positions           : Front: L C R, Side: L R, LFE

Sampling rate               : 48.0 kHz

Frame rate                  : 31.250 FPS (1536 spf)

Compression mode            : Lossy

Stream size                 : 301 MiB (10%)

Title                       : RiPPER~ L3GEND~ Org BluRay 5.1 @ 384kbps~

Language                    : English

Default                     : No

Forced                      : No



Audio #2

ID                          : 3

Format                      : AC-3

Format/Info                 : Audio Coding 3

Mode extension              : CM (complete main)

Format settings, Endianness : Big

Codec ID                    : A_AC3

Duration                    : 1 h 49 min

Bit rate mode               : Constant

Bit rate                    : 448 kb/s

Channel(s)                  : 6 channels

Channel positions           : Front: L C R, Side: L R, LFE

Sampling rate               : 48.0 kHz

Frame rate                  : 31.250 FPS (1536 spf)

Compression mode            : Lossy

Stream size                 : 350 MiB (12%)

Title                       : RiPPER~ L3GEND~ Org DD 5.1 @ 448kbps~

Language                    : Hindi

Default                     : Yes

Forced                      : No


__B!RoH!_MoN__































Share this topic on FacebookShare this topic on GoogleShare this topic on MySpaceShare this topic on TwitterShare this topic on Yahoo

« Last Edit: December 02, 2018, 04:24:10 PM by -Ð@Rk.ÐèVi£- »


Thanks given by:


December 02, 2018, 02:33:17 PM
Reply #1
  • Newbie
  • **
  • Thank You: 0
  • Reputation: 0
  • Activity:
    0.2%
  • Country: in
  • Posts: 1
  • Topics: 0
  • Join Date: Oct 2018
  • ShareSpark Member

Tags:
 

Related Topics





Back to top