+ ShareSpark.net »  :::: Dubbed Zone (Dubbed English in Hindi) » English Movies Dubbed in Hindi » High Resolution Movies
|- Inception 2010 1080p BluRay x264 Dual Audio Hindi Eng AC3 ~ Invincible


Electroncs Sale

Inception 2010 1080p BluRay x264 Dual Audio Hindi Eng AC3 ~ Invincible

0 Members and 1 Guest are viewing this topic.

September 13, 2016, 07:09:48 PM
  • V.I.P.
  • Elite Member
  • ***
  • Topic Author
  • Thank You: 189
  • Reputation: 49
  • Activity:
    0.8%
  • Country: sa
  • Posts: 498
  • Topics: 469
  • Join Date: Jun 2014
  • ShareSpark Member







Quote
General
Complete name :Inception.2010.1080p.BluRay.x264.Hindi.Eng.AC3~Invincible
Format : Matroska
Format version : Version 4 / Version 2
File size : 4.96 GiB
Duration : 2h 22mn
Overall bit rate : 4 995 Kbps


Video
ID : 1
Format : AVC
Format/Info : Advanced Video Codec
Format profile : [email protected]
Format settings, CABAC : Yes
Format settings, ReFrames : 4 frames
Codec ID : V_MPEG4/ISO/AVC
Duration : 2h 22mn
Bit rate : 4 000 Kbps
Width : 1 920 pixels
Height : 816 pixels
Display aspect ratio : 2.35:1
Frame rate mode : Constant
Frame rate : 25.000 fps


Audio #1
ID : 2
Format : AC-3
Format/Info : Audio Coding 3
Mode extension : CM (complete main)
Format settings, Endianness : Big
Codec ID : A_AC3
Duration : 2h 22mn
Bit rate mode : Constant
Bit rate : 448 Kbps
Channel(s) : 6 channels
Channel positions : Front: L C R, Side: L R, LFE
Sampling rate : 48.0 KHz
Compression mode : Lossy
Stream size : 455 MiB (9%)
Title : ETRG
Language : Hindi


Audio #2
ID : 3
Format : AC-3
Format/Info : Audio Coding 3
Mode extension : CM (complete main)
Format settings, Endianness : Big
Codec ID : A_AC3
Duration : 2h 22mn
Bit rate mode : Constant
Bit rate : 448 Kbps
Channel(s) : 6 channels
Channel positions : Front: L C R, Side: L R, LFE
Sampling rate : 48.0 KHz
Compression mode : Lossy
Stream size : 455 MiB (9%)
Title : ETRG
Language : English
__B!RoH!_MoN__






























Share this topic on FacebookShare this topic on GoogleShare this topic on MySpaceShare this topic on TwitterShare this topic on Yahoo

« Last Edit: June 24, 2017, 11:51:15 PM by -Tushar- »


Thanks given by:


September 13, 2016, 07:26:29 PM
Reply #1
  • Royal Member
  • ****
  • Thank You: 5
  • Reputation: 2
  • Activity:
    1.8%
  • Country: in
  • Posts: 913
  • Topics: 8
  • Join Date: Aug 2013
  • ShareSpark Member

September 14, 2016, 09:05:25 AM
Reply #2
  • Senior Member
  • ***
  • Thank You: 165
  • Reputation: 67
  • Activity:
    0%
  • Country: in
  • Posts: 216
  • Topics: 47
  • Join Date: Mar 2016
  • ShareSpark Member

September 16, 2016, 05:28:25 PM
Reply #3
  • V.I.P.
  • Elite Member
  • ***
  • Topic Author
  • Thank You: 189
  • Reputation: 49
  • Activity:
    0.8%
  • Country: sa
  • Posts: 498
  • Topics: 469
  • Join Date: Jun 2014
  • ShareSpark Member
« Last Edit: September 16, 2016, 05:29:01 PM by __B!RoH!_MoN__ »

September 16, 2016, 08:40:01 PM
Reply #4
  • Senior Member
  • ***
  • Thank You: 165
  • Reputation: 67
  • Activity:
    0%
  • Country: in
  • Posts: 216
  • Topics: 47
  • Join Date: Mar 2016
  • ShareSpark Member

September 17, 2016, 12:46:22 AM
Reply #5
  • V.I.P.
  • Elite Member
  • ***
  • Topic Author
  • Thank You: 189
  • Reputation: 49
  • Activity:
    0.8%
  • Country: sa
  • Posts: 498
  • Topics: 469
  • Join Date: Jun 2014
  • ShareSpark Member

June 24, 2017, 11:51:59 PM
Reply #6
  • Team SSX
  • Royal Member
  • ***
  • Thank You: 162
  • Reputation: 144
  • Activity:
    0.2%
  • Country: in
  • Posts: 925
  • Topics: 196
  • Join Date: Nov 2011
  • ShareSpark Member

November 05, 2018, 10:23:04 PM
Reply #7
  • Senior Member
  • ***
  • Thank You: 4
  • Reputation: 1
  • Activity:
    16.4%
  • Country: pk
  • Posts: 217
  • Topics: 7
  • Join Date: Mar 2013
  • ShareSpark Member

Tags: thnxxxx 
 

Related Topics





Back to top