+ ShareSpark.net »  :::: Dubbed Zone (Dubbed English in Hindi) » English Movies Dubbed in Hindi » High Resolution Movies
|- The Jungle Book 2016 1080p BluRay x246 Dual-Audio [Hindi 5.1][English 5.1]...Hon3y


10% SBI and 10% Discount

The Jungle Book 2016 1080p BluRay x246 Dual-Audio [Hindi 5.1][English 5.1]...Hon3y

0 Members and 1 Guest are viewing this topic.

August 28, 2016, 09:43:15 PM
  • *****************
  • Head Admin
  • Legend Member
  • *****
  • Topic Author
  • Thank You: 6878
  • Reputation: 2993
  • Activity:
    89.4%
  • Country: in
  • Posts: 19037
  • Topics: 11071
  • Join Date: Mar 2012
  • The Time Is Now......


Format                      : Matroska
Format version              : Version 4 / Version 2
File size                   : 4.40 GiB
Duration                    : 1 h 45 min
Overall bit rate            : 5 944 kb/s
Movie name                  : [email protected]

Video
ID                          : 1
Format                      : AVC
Format/Info                 : Advanced Video Codec
Format profile              : [email protected]
Format settings, CABAC      : Yes
Format settings, ReFrames   : 4 frames
Codec ID                    : V_MPEG4/ISO/AVC
Duration                    : 1 h 45 min
Bit rate                    : 5 013 kb/s
Width                       : 1 920 pixels
Height                      : 1 036 pixels
Display aspect ratio        : 1.85:1
Frame rate mode             : Constant
Frame rate                  : 23.976 (24000/1001) FPS
Color space                 : YUV
Chroma subsampling          : 4:2:0
Bit depth                   : 8 bits
Scan type                   : Progressive
Bits/(Pixel*Frame)          : 0.105
Stream size                 : 3.71 GiB (84%)
Title                       : [email protected]

Audio #1
ID                          : 2
Format                      : AC-3
Format/Info                 : Audio Coding 3
Mode extension              : CM (complete main)
Format settings, Endianness : Big
Codec ID                    : A_AC3
Duration                    : 1 h 45 min
Bit rate mode               : Constant
Bit rate                    : 448 kb/s
Channel(s)                  : 6 channels
Channel positions           : Front: L C R, Side: L R, LFE
Sampling rate               : 48.0 kHz
Frame rate                  : 31.250 FPS (1536 spf)
Compression mode            : Lossy
Stream size                 : 339 MiB (8%)
Title                       : [email protected]
Language                    : Hindi
Default                     : Yes
Forced                      : Yes

Audio #2
ID                          : 3
Format                      : AC-3
Format/Info                 : Audio Coding 3
Mode extension              : CM (complete main)
Format settings, Endianness : Big
Codec ID                    : A_AC3
Duration                    : 1 h 45 min
Bit rate mode               : Constant
Bit rate                    : 448 kb/s
Channel(s)                  : 6 channels
Channel positions           : Front: L C R, Side: L R, LFE
Sampling rate               : 48.0 kHz
Frame rate                  : 31.250 FPS (1536 spf)
Compression mode            : Lossy
Stream size                 : 339 MiB (8%)
Title                       : [email protected]
Language                    : English
Default                     : No
Forced                      : No

Text #1
ID                          : 4
Format                      : PGS
Muxing mode                 : zlib
Codec ID                    : S_HDMV/PGS
Codec ID/Info               : Picture based subtitle format used on BDs/HD-DVDs
Duration                    : 1 h 44 min
Bit rate                    : 10.6 kb/s
Count of elements           : 2822
Stream size                 : 7.94 MiB (0%)
Title                       : [email protected]
Language                    : English
Default                     : No
Forced                      : No

Text #2
ID                          : 5
Format                      : PGS
Muxing mode                 : zlib
Codec ID                    : S_HDMV/PGS
Codec ID/Info               : Picture based subtitle format used on BDs/HD-DVDs
Duration                    : 1 h 45 min
Bit rate                    : 23.6 kb/s
Count of elements           : 4090
Stream size                 : 17.8 MiB (0%)
Title                       : [email protected]
Language                    : English
Default                     : No
Forced                      : No

Menu
00:00:00.000                : en:00:00:00.000
00:00:48.213                : en:00:00:48.213
00:05:15.314                : en:00:05:15.314
00:09:02.457                : en:00:09:02.457
00:12:42.177                : en:00:12:42.177
00:16:34.451                : en:00:16:34.451
00:21:20.028                : en:00:21:20.028
00:27:15.133                : en:00:27:15.133
00:35:04.143                : en:00:35:04.143
00:43:21.724                : en:00:43:21.724
00:48:05.132                : en:00:48:05.132
00:53:29.246                : en:00:53:29.246
00:58:03.271                : en:00:58:03.271
01:05:46.442                : en:01:05:46.442
01:10:35.521                : en:01:10:35.521
01:17:01.324                : en:01:17:01.324
01:20:48.926                : en:01:20:48.926
01:24:46.538                : en:01:24:46.538
01:30:32.969                : en:01:30:32.969
01:35:53.204                : en:01:35:53.204

























Share this topic on FacebookShare this topic on GoogleShare this topic on MySpaceShare this topic on TwitterShare this topic on Yahoo



Thanks given by:


November 20, 2018, 07:24:18 PM
Reply #1
  • Senior Member
  • ***
  • Thank You: 4
  • Reputation: 1
  • Activity:
    16.4%
  • Country: pk
  • Posts: 217
  • Topics: 7
  • Join Date: Mar 2013
  • ShareSpark Member

Tags:
 

Related Topics





Back to top