+ ShareSpark.net »  :::: Dubbed Zone (Dubbed English in Hindi) » English Movies Dubbed in Hindi » High Resolution Movies
|- The.Jungle.Book.[2016].Blu-Ray.1080p.x264.Dual.Audio.[EngDTS.+Hindi.DD5.1][E-Subs]-Hon3y


TV and Appliances

The.Jungle.Book.[2016].Blu-Ray.1080p.x264.Dual.Audio.[EngDTS.+Hindi.DD5.1][E-Subs]-Hon3y

0 Members and 1 Guest are viewing this topic.

August 28, 2016, 06:56:45 PM
  • *****************
  • Head Admin
  • Legend Member
  • *****
  • Topic Author
  • Thank You: 6878
  • Reputation: 2993
  • Activity:
    89.4%
  • Country: in
  • Posts: 19037
  • Topics: 11071
  • Join Date: Mar 2012
  • The Time Is Now......


Format                                   : Matroska
Format version                           : Version 4 / Version 2
File size                                : 7.54 GiB
Duration                                 : 1h 45mn
Overall bit rate                         : 10.2 Mbps


Video
ID                                       : 1
Format                                   : AVC
Format/Info                              : Advanced Video Codec
Format profile                           : [email protected]
Format settings, CABAC                   : Yes
Format settings, ReFrames                : 4 frames
Codec ID                                 : V_MPEG4/ISO/AVC
Duration                                 : 1h 45mn
Bit rate                                 : 8 000 Kbps
Width                                    : 1 920 pixels
Height                                   : 1 040 pixels
Display aspect ratio                     : 1.85:1
Frame rate mode                          : Constant
Frame rate                               : 23.976 fps
Color space                              : YUV
Chroma subsampling                       : 4:2:0
Bit depth                                : 8 bits
Scan type                                : Progressive
Bits/(Pixel*Frame)                       : 0.167
Stream size                              : 5.80 GiB (77%)
Title                                    : [email protected]
Writing library                          : x264
Language                                 : English
Default                                  : Yes
Forced                                   : No
Color primaries                          : BT.709
Transfer characteristics                 : BT.709
Matrix coefficients                      : BT.709

Audio #1
ID                                       : 2
Format                                   : AC-3
Format/Info                              : Audio Coding 3
Mode extension                           : CM (complete main)
Format settings, Endianness              : Big
Codec ID                                 : A_AC3
Duration                                 : 1h 45mn
Bit rate mode                            : Constant
Bit rate                                 : 640 Kbps
Channel count                            : 6 channels
Channel positions                        : Front: L C R, Side: L R, LFE
Sampling rate                            : 48.0 KHz
Bit depth                                : 16 bits
Compression mode                         : Lossy
Stream size                              : 485 MiB (6%)
Title                                    : [email protected]
Language                                 : Hindi
Default                                  : No
Forced                                   : No

Audio #2
ID                                       : 3
Format                                   : DTS
Format/Info                              : Digital Theater Systems
Mode                                     : 16
Format settings, Endianness              : Big
Codec ID                                 : A_DTS
Duration                                 : 1h 45mn
Bit rate mode                            : Constant
Bit rate                                 : 1 509 Kbps
Channel count                            : 6 channels
Channel positions                        : Front: L C R, Side: L R, LFE
Sampling rate                            : 48.0 KHz
Bit depth                                : 24 bits
Compression mode                         : Lossy
Stream size                              : 1.12 GiB (15%)
Title                                    : [email protected]
Language                                 : English
Default                                  : Yes
Forced                                   : No

Text #1
ID                                       : 4
Format                                   : PGS
Muxing mode                              : zlib
Codec ID                                 : S_HDMV/PGS
Codec ID/Info                            : The same subtitle format used on BDs/HD-DVDs
Title                                    : [email protected]
Language                                 : English
Default                                  : Yes
Forced                                   : No

Text #2
ID                                       : 5
Format                                   : PGS
Muxing mode                              : zlib
Codec ID                                 : S_HDMV/PGS
Codec ID/Info                            : The same subtitle format used on BDs/HD-DVDs
Title                                    : [email protected]
Language                                 : English
Default                                  : No
Forced                                   : No


















Share this topic on FacebookShare this topic on GoogleShare this topic on MySpaceShare this topic on TwitterShare this topic on Yahoo




November 20, 2018, 07:21:34 PM
Reply #1
  • Senior Member
  • ***
  • Thank You: 4
  • Reputation: 1
  • Activity:
    16.4%
  • Country: pk
  • Posts: 217
  • Topics: 7
  • Join Date: Mar 2013
  • ShareSpark Member

Tags:
 

Related Topics





Back to top