+ ShareSpark.net »  :::: Dubbed Zone (Dubbed English in Hindi) » English Movies Dubbed in Hindi » High Resolution Movies
|- The Jungle Book (2016) 1080p[Dual Audio][ENG(5.1)-HINDI(5.1)]~{PHDR}~


100% Bill Offer

The Jungle Book (2016) 1080p[Dual Audio][ENG(5.1)-HINDI(5.1)]~{PHDR}~

0 Members and 1 Guest are viewing this topic.

August 28, 2016, 12:58:54 PM
  • *****************
  • Head Admin
  • Legend Member
  • *****
  • Topic Author
  • Thank You: 6878
  • Reputation: 2993
  • Activity:
    86.8%
  • Country: in
  • Posts: 19037
  • Topics: 11071
  • Join Date: Mar 2012
  • The Time Is Now......


General

Format : Matroska
Format version : Version 4 / Version 2
File size : 4.88 GiB
Duration : 1h 45mn
Overall bit rate : 6 592 Kbps
Movie name : The Jungle Book (2016) 1080p[Dual Audio][ENG(5.1)-HINDI(5.1)]~{PHDR}~


Video
ID : 1
Format : AVC
Format/Info : Advanced Video Codec
Format profile : [email protected]
Format settings, CABAC : Yes
Format settings, ReFrames : 4 frames
Codec ID : V_MPEG4/ISO/AVC
Duration : 1h 45mn
Bit rate : 5 300 Kbps
Width : 1 920 pixels
Height : 1 038 pixels
Display aspect ratio : 1.85:1
Frame rate mode : Constant
Frame rate : 23.976 (24000/1001) fps
Color space : YUV
Chroma subsampling : 4:2:0
Bit depth : 8 bits
Scan type : Progressive
Bits/(Pixel*Frame) : 0.111
Stream size : 3.92 GiB (80%)
Title : x264, 1080p24
Language : vai
Default : Yes
Forced : No

Audio #1
ID : 2
Format : AC-3
Format/Info : Audio Coding 3
Mode extension : CM (complete main)
Format settings, Endianness : Big
Codec ID : A_AC3
Duration : 1h 45mn
Bit rate mode : Constant
Bit rate : 640 Kbps
Channel(s) : 6 channels
Channel positions : Front: L C R, Side: L R, LFE
Sampling rate : 48.0 KHz
Frame rate : 31.250 fps (1536 spf)
Compression mode : Lossy
Stream size : 485 MiB (10%)
Title : Bluray ~{PHDR}~
Language : Hindi
Default : Yes
Forced : No

Audio #2
ID : 3
Format : AC-3
Format/Info : Audio Coding 3
Mode extension : CM (complete main)
Format settings, Endianness : Big
Codec ID : A_AC3
Duration : 1h 45mn
Bit rate mode : Constant
Bit rate : 640 Kbps
Channel(s) : 6 channels
Channel positions : Front: L C R, Side: L R, LFE
Sampling rate : 48.0 KHz
Frame rate : 31.250 fps (1536 spf)
Compression mode : Lossy
Stream size : 485 MiB (10%)
Title : Bluray ~{PHDR}~
Language : English
Default : No
Forced : No

Text
ID : 4
Format : PGS
Muxing mode : zlib
Codec ID : S_HDMV/PGS
Codec ID/Info : Picture based subtitle format used on BDs/HD-DVDs
Duration : 1h 44mn
Bit rate : 10.6 Kbps
Count of elements : 2822
Stream size : 7.94 MiB (0%)
Title : Bluray SDH ~{PHDR}~
Language : English
Default : Yes
Forced : No

Menu : Yes ( Named )

































Share this topic on FacebookShare this topic on GoogleShare this topic on MySpaceShare this topic on TwitterShare this topic on Yahoo



Thanks given by:


November 20, 2018, 07:20:19 PM
Reply #1
  • Senior Member
  • ***
  • Thank You: 4
  • Reputation: 1
  • Activity:
    17.4%
  • Country: pk
  • Posts: 222
  • Topics: 7
  • Join Date: Mar 2013
  • ShareSpark Member

Tags:
 

Related Topics





Back to top